Code:
General
Format                      : MPEG-4
Format profile              : Base Media
Codec ID                    : isom (isom/iso2/avc1/mp41)
File size                   : 4.47 GiB
Duration                    : 2 h 12 min
Overall bit rate            : 4 819 kb/s
Writing application         : Lavf56.36.100

Video
ID                          : 1
Format                      : AVC
Format/Info                 : Advanced Video Codec
Format profile              : Main@L3.1
Format settings, CABAC      : Yes
Format settings, RefFrames  : 3 frames
Codec ID                    : avc1
Codec ID/Info               : Advanced Video Coding
Duration                    : 2 h 12 min
Bit rate                    : 4 673 kb/s
Width                       : 1 280 pixels
Height                      : 720 pixels
Display aspect ratio        : 16:9
Frame rate mode             : Variable
Frame rate                  : 25.000 FPS
Minimum frame rate          : 12.500 FPS
Maximum frame rate          : 25.000 FPS
Color space                 : YUV
Chroma subsampling          : 4:2:0
Bit depth                   : 8 bits
Scan type                   : Progressive
Bits/(Pixel*Frame)          : 0.203
Stream size                 : 4.33 GiB (97%)

Audio
ID                          : 2
Format                      : AAC
Format/Info                 : Advanced Audio Codec
Format profile              : LC
Codec ID                    : 40
Duration                    : 2 h 12 min
Bit rate mode               : Constant
Bit rate                    : 132 kb/s
Channel(s)                  : 2 channels
Channel positions           : Front: L R
Sampling rate               : 96.0 kHz
Frame rate                  : 93.750 FPS (1024 SPF)
Compression mode            : Lossy
Stream size                 : 123 MiB (3%)
Language                    : Tatar
Default                     : Yes
Alternate group             : 1



SINGLE DIRECT FAST LINKS
Code:
https://www.heroupload.com/61d70f55141e399a/Paisa.Vasool.2017.Telugu.WEB-HD.720p.UNTOUCHED.AVC.AAC-TMV.mp4
Code:
http://filefloater.com/4dz/Paisa.Vasool.2017.Telugu.WEB-HD.720p.UNTOUCHED.AVC.AAC-TMV.mp4
1GB LINKS
Code:
https://www.heroupload.com/55dd13e84ec1a77b/Paisa.Vasool.2017.Telugu.WEB-HD.720p.UNTOUCHED.AVC.AAC-TMV.part1.rar
https://www.heroupload.com/105c8c77dea439be/Paisa.Vasool.2017.Telugu.WEB-HD.720p.UNTOUCHED.AVC.AAC-TMV.part2.rar
https://www.heroupload.com/8700a335963bde4d/Paisa.Vasool.2017.Telugu.WEB-HD.720p.UNTOUCHED.AVC.AAC-TMV.part3.rar
https://www.heroupload.com/10f731659469daf3/Paisa.Vasool.2017.Telugu.WEB-HD.720p.UNTOUCHED.AVC.AAC-TMV.part4.rar
https://www.heroupload.com/d6f34cf6910df7d5/Paisa.Vasool.2017.Telugu.WEB-HD.720p.UNTOUCHED.AVC.AAC-TMV.part5.rar
Code:
http://filefloater.com/9qa/Paisa.Vasool.2017.Telugu.WEB-HD.720p.UNTOUCHED.AVC.AAC-TMV.part1.rar
http://filefloater.com/9qb/Paisa.Vasool.2017.Telugu.WEB-HD.720p.UNTOUCHED.AVC.AAC-TMV.part2.rar
http://filefloater.com/9qc/Paisa.Vasool.2017.Telugu.WEB-HD.720p.UNTOUCHED.AVC.AAC-TMV.part3.rar
http://filefloater.com/9qd/Paisa.Vasool.2017.Telugu.WEB-HD.720p.UNTOUCHED.AVC.AAC-TMV.part4.rar
http://filefloater.com/9qe/Paisa.Vasool.2017.Telugu.WEB-HD.720p.UNTOUCHED.AVC.AAC-TMV.part5.rar