Code:
General
Format                      : Matroska
Format version              : Version 4 / Version 2
File size                   : 3.35 GiB
Duration                    : 2 h 19 min
Overall bit rate mode       : Variable
Overall bit rate            : 3 450 kb/s
Encoded date                : UTC 2018-01-12 16:08:03
Writing application         : mkvmerge v19.0.0 ('Brave Captain') 64-bit
Writing library             : libebml v1.3.5 + libmatroska v1.4.8

Video
ID                          : 1
Format                      : AVC
Format/Info                 : Advanced Video Codec
Format profile              : Baseline@L3.2
Format settings, CABAC      : No
Format settings, RefFrames  : 1 frame
Format settings, GOP        : M=1, N=25
Codec ID                    : V_MPEG4/ISO/AVC
Duration                    : 2 h 19 min
Bit rate mode               : Variable
Bit rate                    : 3 252 kb/s
Maximum bit rate            : 6 888 kb/s
Width                       : 1 366 pixels
Height                      : 768 pixels
Display aspect ratio        : 16:9
Frame rate mode             : Variable
Frame rate                  : 28.540 FPS
Original frame rate         : 30.000 FPS
Color space                 : YUV
Chroma subsampling          : 4:2:0
Bit depth                   : 8 bits
Scan type                   : Progressive
Bits/(Pixel*Frame)          : 0.109
Stream size                 : 3.16 GiB (94%)
Language                    : English
Default                     : Yes
Forced                      : No

Audio
ID                          : 2
Format                      : AAC
Format/Info                 : Advanced Audio Codec
Format profile              : LC
Codec ID                    : A_AAC
Duration                    : 2 h 19 min
Bit rate                    : 192 kb/s
Channel(s)                  : 2 channels
Channel positions           : Front: L R
Sampling rate               : 44.1 kHz
Frame rate                  : 43.066 FPS (1024 SPF)
Compression mode            : Lossy
Stream size                 : 194 MiB (6%)
Language                    : English
Default                     : Yes
Forced                      : No









SINGLE DIRECT FAST LINKS
Code:
https://www.heroupload.com/d29369aea3606345/Sulu.2017.720p.Hindi.Untouched.WEBHD.AVC.AAC.ESub-Team.IcTv.mkv
Code:
http://filefloater.com/9pb/Sulu.2017.720p.Hindi.Untouched.WEBHD.AVC.AAC.ESub-Team.IcTv.mkv
1GB LINKS

Code:
https://www.heroupload.com/537697719ca67739/Sulu.2017.720p.Hindi.Untouched.WEBHD.AVC.AAC.ESub-Team.IcTv.part1.rar
https://www.heroupload.com/639042feb99da324/Sulu.2017.720p.Hindi.Untouched.WEBHD.AVC.AAC.ESub-Team.IcTv.part2.rar
https://www.heroupload.com/171d28d27811df27/Sulu.2017.720p.Hindi.Untouched.WEBHD.AVC.AAC.ESub-Team.IcTv.part3.rar
https://www.heroupload.com/a9040001d1dd59da/Sulu.2017.720p.Hindi.Untouched.WEBHD.AVC.AAC.ESub-Team.IcTv.part4.rar
Code:
http://filefloater.com/9pc/Sulu.2017.720p.Hindi.Untouched.WEBHD.AVC.AAC.ESub-Team.IcTv.part1.rar
http://filefloater.com/9pd/Sulu.2017.720p.Hindi.Untouched.WEBHD.AVC.AAC.ESub-Team.IcTv.part2.rar
http://filefloater.com/9pe/Sulu.2017.720p.Hindi.Untouched.WEBHD.AVC.AAC.ESub-Team.IcTv.part3.rar
http://filefloater.com/9pf/Sulu.2017.720p.Hindi.Untouched.WEBHD.AVC.AAC.ESub-Team.IcTv.part4.rar