Code:
General
Format                      : MPEG-4
Format profile              : Base Media
Codec ID                    : isom (isom)
File size                   : 1.97 GiB
Duration                    : 2 h 1 min
Overall bit rate mode       : Variable
Overall bit rate            : 2 309 kb/s
Encoded date                : UTC 2018-01-11 23:52:14
Tagged date                 : UTC 2018-01-11 23:52:14
Writing application         : MkvToMp4 [www.mkvtomp4.ru] version 0.224 (x64)

Video
ID                          : 1
Format                      : AVC
Format/Info                 : Advanced Video Codec
Format profile              : Main@L3.1
Format settings, CABAC      : Yes
Format settings, RefFrames  : 4 frames
Codec ID                    : avc1
Codec ID/Info               : Advanced Video Coding
Duration                    : 2 h 1 min
Bit rate                    : 1 992 kb/s
Maximum bit rate            : 5 135 kb/s
Width                       : 1 280 pixels
Height                      : 720 pixels
Display aspect ratio        : 16:9
Frame rate mode             : Constant
Frame rate                  : 25.000 FPS
Color space                 : YUV
Chroma subsampling          : 4:2:0
Bit depth                   : 8 bits
Scan type                   : Progressive
Bits/(Pixel*Frame)          : 0.086
Stream size                 : 1.70 GiB (86%)
Writing library             : Zencoder Video Encoding System
Language                    : English
Tagged date                 : UTC 2018-01-11 23:52:21
Color range                 : Limited
Color primaries             : BT.709
Transfer characteristics    : BT.709
Matrix coefficients         : BT.709

Audio
ID                          : 2
Format                      : AAC
Format/Info                 : Advanced Audio Codec
Format profile              : LC
Codec ID                    : 40
Duration                    : 2 h 1 min
Bit rate mode               : Variable
Bit rate                    : 313 kb/s
Maximum bit rate            : 392 kb/s
Channel(s)                  : 2 channels
Channel(s)_Original         : 6 channels
Channel positions           : Front: L C R, Side: L R, LFE
Sampling rate               : 48.0 kHz
Frame rate                  : 46.875 FPS (1024 SPF)
Compression mode            : Lossy
Stream size                 : 273 MiB (14%)
Language                    : English
Default                     : Yes
Alternate group             : 1
Encoded date                : UTC 2018-01-11 23:52:18
Tagged date                 : UTC 2018-01-11 23:52:21




SINGLE DIRECT FAST LINKS
Code:
https://www.heroupload.com/e292dd6e0a4be818/Maayavan.2017.720p.v2.HD.AVC.MP4.5.1.ESubs.Tamil-MTR.mp4
https://www.heroupload.com/99f02387391406e1/Maayavan.2017.720p.v2.HD.AVC.MP4.5.1.ESubs.Tamil-MTR.srt
Code:
http://filefloater.com/4bm/Maayavan.2017.720p.v2.HD.AVC.MP4.5.1.ESubs.Tamil-MTR.mp4
http://filefloater.com/4bn/Maayavan.2017.720p.v2.HD.AVC.MP4.5.1.ESubs.Tamil-MTR.srt

[/CENTER]