Code:
General
Format                      : AVI
Format/Info                 : Audio Video Interleave
File size                   : 711 MiB
Duration                    : 2 h 1 min
Overall bit rate            : 816 kb/s

Video
ID                          : 0
Format                      : MPEG-4 Visual
Format profile              : Advanced Simple@L5
Format settings, BVOP       : 2
Format settings, QPel       : No
Format settings, GMC        : No warppoints
Format settings, Matrix     : Default (H.263)
Codec ID                    : XVID
Codec ID/Hint               : XviD
Duration                    : 2 h 1 min
Bit rate                    : 714 kb/s
Width                       : 608 pixels
Height                      : 256 pixels
Display aspect ratio        : 2.40:1
Frame rate                  : 25.000 FPS
Color space                 : YUV
Chroma subsampling          : 4:2:0
Bit depth                   : 8 bits
Scan type                   : Progressive
Compression mode            : Lossy
Bits/(Pixel*Frame)          : 0.183
Stream size                 : 622 MiB (87%)
Writing library             : XviD 67

Audio
ID                          : 1
Format                      : MPEG Audio
Format version              : Version 1
Format profile              : Layer 3
Mode                        : Joint stereo
Codec ID                    : 55
Codec ID/Hint               : MP3
Duration                    : 2 h 1 min
Bit rate mode               : Constant
Bit rate                    : 96.0 kb/s
Channel(s)                  : 2 channels
Sampling rate               : 48.0 kHz
Compression mode            : Lossy
Stream size                 : 83.7 MiB (12%)
Alignment                   : Aligned on interleaves
Interleave, duration        : 160  ms (4.00 video frames)
Interleave, preload duratio : 216  ms
Title                       : Maayavan
Writing library             : LAME3.99.5UUUUUUUUU3




SINGLE DIRECT FAST LINKS

Code:
https://www.heroupload.com/4892ede42d498c47/Maayavan.2017.HDRip.XviD.MP3.700MB.ESubs.Tamil-MTR.avi
https://www.heroupload.com/b2677f8ec52b4fed/Maayavan.2017.HDRip.XviD.MP3.700MB.ESubs.Tamil-MTR.srt
Code:
http://filefloater.com/4bu/Maayavan.2017.HDRip.XviD.MP3.700MB.ESubs.Tamil-MTR.avi
http://filefloater.com/4bv/Maayavan.2017.HDRip.XviD.MP3.700MB.ESubs.Tamil-MTR.srt