Code:
Format                      : Matroska
Format version              : Version 4 / Version 2
File size                   : 4.43 GiB
Duration                    : 2 h 14 min
Overall bit rate            : 4 701 kb/s
Movie name                  : Team Jio
Encoded date                : UTC 2018-01-04 15:11:42
Writing application         : mkvmerge v19.0.0 ('Brave Captain') 64-bit
Writing library             : libebml v1.3.5 + libmatroska v1.4.8

Video
ID                          : 2
Format                      : AVC
Format/Info                 : Advanced Video Codec
Format profile              : Main@L4
Format settings             : CABAC / 2 Ref Frames
Format settings, CABAC      : Yes
Format settings, ReFrames   : 2 frames
Format settings, GOP        : M=1, N=12
Codec ID                    : V_MPEG4/ISO/AVC
Duration                    : 2 h 14 min
Bit rate                    : 4 507 kb/s
Width                       : 1 920 pixels
Height                      : 1 080 pixels
Display aspect ratio        : 16:9
Frame rate mode             : Constant
Frame rate                  : 24.000 FPS
Color space                 : YUV
Chroma subsampling          : 4:2:0
Bit depth                   : 8 bits
Scan type                   : Progressive
Bits/(Pixel*Frame)          : 0.091
Stream size                 : 4.24 GiB (96%)
Title                       : Team Jio
Default                     : Yes
Forced                      : No

Audio
ID                          : 1
Format                      : E-AC-3
Format/Info                 : Enhanced Audio Coding 3
Codec ID                    : A_EAC3
Duration                    : 2 h 14 min
Bit rate mode               : Constant
Bit rate                    : 192 kb/s
Channel(s)                  : 6 channels
Channel positions           : Front: L C R, Side: L R, LFE
Sampling rate               : 48.0 kHz
Frame rate                  : 187.500 FPS (256 SPF)
Compression mode            : Lossy
Delay relative to video     : -42 ms
Stream size                 : 185 MiB (4%)
Title                       : Team Jio
Language                    : Hindi
Service kind                : Complete Main
Default                     : Yes
Forced                      : No




SINGLE DIRECT FAST LINKS
Code:
https://www.heroupload.com/4cca6b75bab6b01d/Jora.10.Numbaria.2017.Punjabi.1080p.WEBDL.DD5.1.Audio-Team.Jio.Exclusive.mkv
Code:
http://filefloater.com/48b/Jora.10.Numbaria.2017.Punjabi.1080p.WEBDL.DD5.1.Audio-Team.Jio.Exclusive.mkv
1GB LINKS
Code:
https://www.heroupload.com/eae6787f72e87dad/Jora.10.Numbaria.2017.Punjabi.1080p.WEBDL.DD5.1.Audio-Team.Jio.Exclusive.part1.rar
https://www.heroupload.com/a1a3885dd48a0bc2/Jora.10.Numbaria.2017.Punjabi.1080p.WEBDL.DD5.1.Audio-Team.Jio.Exclusive.part2.rar
https://www.heroupload.com/32a5c74b79bf6f75/Jora.10.Numbaria.2017.Punjabi.1080p.WEBDL.DD5.1.Audio-Team.Jio.Exclusive.part3.rar
https://www.heroupload.com/c2cfa9767b94851b/Jora.10.Numbaria.2017.Punjabi.1080p.WEBDL.DD5.1.Audio-Team.Jio.Exclusive.part4.rar
https://www.heroupload.com/b1b96ee64763b36c/Jora.10.Numbaria.2017.Punjabi.1080p.WEBDL.DD5.1.Audio-Team.Jio.Exclusive.part5.rar
Code:
http://filefloater.com/48c/Jora.10.Numbaria.2017.Punjabi.1080p.WEBDL.DD5.1.Audio-Team.Jio.Exclusive.part1.rar
http://filefloater.com/48d/Jora.10.Numbaria.2017.Punjabi.1080p.WEBDL.DD5.1.Audio-Team.Jio.Exclusive.part2.rar
http://filefloater.com/48e/Jora.10.Numbaria.2017.Punjabi.1080p.WEBDL.DD5.1.Audio-Team.Jio.Exclusive.part3.rar
http://filefloater.com/48f/Jora.10.Numbaria.2017.Punjabi.1080p.WEBDL.DD5.1.Audio-Team.Jio.Exclusive.part4.rar
http://filefloater.com/48g/Jora.10.Numbaria.2017.Punjabi.1080p.WEBDL.DD5.1.Audio-Team.Jio.Exclusive.part5.rar