Code:
General
Format                      : MPEG-4
Format profile              : Base Media
Codec ID                    : isom (isom)
File size                   : 2.79 GiB
Duration                    : 1 h 59 min
Overall bit rate mode       : Variable
Overall bit rate            : 3 347 kb/s
Encoded date                : UTC 2018-01-04 18:16:26
Tagged date                 : UTC 2018-01-04 18:16:26
Writing application         : MkvToMp4 [www.mkvtomp4.ru] version 0.224 (x64)

Video
ID                          : 1
Format                      : AVC
Format/Info                 : Advanced Video Codec
Format profile              : Main@L3.1
Format settings, CABAC      : Yes
Format settings, RefFrames  : 3 frames
Format settings, GOP        : M=4, N=90
Codec ID                    : avc1
Codec ID/Info               : Advanced Video Coding
Duration                    : 1 h 59 min
Source duration             : 1 h 59 min
Bit rate mode               : Constant
Bit rate                    : 3 250 kb/s
Maximum bit rate            : 7 375 kb/s
Width                       : 1 280 pixels
Height                      : 720 pixels
Display aspect ratio        : 16:9
Frame rate mode             : Constant
Frame rate                  : 29.970 (30000/1001) FPS
Color space                 : YUV
Chroma subsampling          : 4:2:0
Bit depth                   : 8 bits
Scan type                   : Progressive
Bits/(Pixel*Frame)          : 0.118
Stream size                 : 2.60 GiB (93%)
Source stream size          : 2.71 GiB (97%)
Language                    : English
Tagged date                 : UTC 2018-01-04 18:16:32

Audio
ID                          : 2
Format                      : AAC
Format/Info                 : Advanced Audio Codec
Format profile              : LC
Codec ID                    : 40
Duration                    : 1 h 59 min
Bit rate mode               : Variable
Bit rate                    : 93.4 kb/s
Maximum bit rate            : 100 kb/s
Channel(s)                  : 2 channels
Channel positions           : Front: L R
Sampling rate               : 48.0 kHz
Frame rate                  : 46.875 FPS (1024 SPF)
Compression mode            : Lossy
Stream size                 : 79.8 MiB (3%)
Language                    : English
Default                     : Yes
Alternate group             : 1
Encoded date                : UTC 2018-01-04 18:16:31
Tagged date                 : UTC 2018-01-04 18:16:32



SINGLE DIRECT FAST LINKS
Code:
https://www.heroupload.com/6cc3fd10c9e63e04/Ulkuthu.2017.720p.WEB-HD.AVC.MP4.ESubs.Tamil-MTR.mp4
Code:
http://filefloater.com/48w/Ulkuthu.2017.720p.WEB-HD.AVC.MP4.ESubs.Tamil-MTR.mp4
700MB LINKS
Code:
https://www.heroupload.com/4ec43ba3b958e6a5/Ulkuthu.2017.720p.WEB-HD.AVC.MP4.ESubs.Tamil-MTR.part1.rar
https://www.heroupload.com/433c3d9fc78ab072/Ulkuthu.2017.720p.WEB-HD.AVC.MP4.ESubs.Tamil-MTR.part2.rar
https://www.heroupload.com/e35e904b115640ad/Ulkuthu.2017.720p.WEB-HD.AVC.MP4.ESubs.Tamil-MTR.part3.rar
https://www.heroupload.com/f03116025be6990d/Ulkuthu.2017.720p.WEB-HD.AVC.MP4.ESubs.Tamil-MTR.part4.rar
https://www.heroupload.com/9315e0bbdd5d6d83/Ulkuthu.2017.720p.WEB-HD.AVC.MP4.ESubs.Tamil-MTR.part5.rar
https://www.heroupload.com/2cf345334635e429/Ulkuthu.2017.720p.WEB-HD.AVC.MP4.ESubs.Tamil-MTR.srt
Code:
http://filefloater.com/48x/Ulkuthu.2017.720p.WEB-HD.AVC.MP4.ESubs.Tamil-MTR.part1.rar
http://filefloater.com/48y/Ulkuthu.2017.720p.WEB-HD.AVC.MP4.ESubs.Tamil-MTR.part2.rar
http://filefloater.com/48z/Ulkuthu.2017.720p.WEB-HD.AVC.MP4.ESubs.Tamil-MTR.part3.rar
http://filefloater.com/9la/Ulkuthu.2017.720p.WEB-HD.AVC.MP4.ESubs.Tamil-MTR.part4.rar
http://filefloater.com/9lb/Ulkuthu.2017.720p.WEB-HD.AVC.MP4.ESubs.Tamil-MTR.part5.rar
http://filefloater.com/9lc/Ulkuthu.2017.720p.WEB-HD.AVC.MP4.ESubs.Tamil-MTR.srt