Code:
General
Format                      : MPEG-4
Format profile              : Base Media
Codec ID                    : isom (isom/iso2/avc1/mp41)
File size                   : 2.63 GiB
Duration                    : 2 h 19 min
Overall bit rate            : 2 696 kb/s
Writing application         : Lavf55.33.100

Video
ID                          : 1
Format                      : AVC
Format/Info                 : Advanced Video Codec
Format profile              : High@L4
Format settings, CABAC      : Yes
Format settings, RefFrames  : 2 frames
Codec ID                    : avc1
Codec ID/Info               : Advanced Video Coding
Duration                    : 2 h 19 min
Bit rate                    : 2 564 kb/s
Width                       : 1 920 pixels
Height                      : 1 080 pixels
Display aspect ratio        : 16:9
Frame rate mode             : Constant
Frame rate                  : 24.000 FPS
Color space                 : YUV
Chroma subsampling          : 4:2:0
Bit depth                   : 8 bits
Scan type                   : Progressive
Bits/(Pixel*Frame)          : 0.052
Stream size                 : 2.51 GiB (95%)
Color range                 : Limited
Color primaries             : BT.709
Transfer characteristics    : BT.709
Matrix coefficients         : BT.709

Audio
ID                          : 2
Format                      : AAC
Format/Info                 : Advanced Audio Codec
Format profile              : LC
Codec ID                    : 40
Duration                    : 2 h 19 min
Bit rate mode               : Constant
Bit rate                    : 126 kb/s
Channel(s)                  : 2 channels
Channel positions           : Front: L R
Sampling rate               : 44.1 kHz
Frame rate                  : 43.066 FPS (1024 SPF)
Compression mode            : Lossy
Stream size                 : 126 MiB (5%)
Default                     : Yes
Alternate group             : 1




SINGLE DIRECT FAST LINKS

Code:
https://www.heroupload.com/7fa6e23291dbe615/44.Sardar.Mohammad.2017.Punjabi.1080p.AVC.UNTOUCHED-WarezRock.mp4
700MB LINKS

Code:
https://www.heroupload.com/42393965939229a4/44.Sardar.Mohammad.2017.Punjabi.1080p.AVC.UNTOUCHED-WarezRock.part1.rar
https://www.heroupload.com/e1bf16f364d8abc7/44.Sardar.Mohammad.2017.Punjabi.1080p.AVC.UNTOUCHED-WarezRock.part2.rar
https://www.heroupload.com/940c6a3685e4a080/44.Sardar.Mohammad.2017.Punjabi.1080p.AVC.UNTOUCHED-WarezRock.part3.rar
https://www.heroupload.com/e9e7cdd5b8904e86/44.Sardar.Mohammad.2017.Punjabi.1080p.AVC.UNTOUCHED-WarezRock.part4.rar