Code:
Format                      : MPEG-4
Format profile              : Base Media / Version 2
Codec ID                    : mp42 (isom/iso2/avc1/mp41)
File size                   : 1.09 GiB
Duration                    : 1 h 36 min
Overall bit rate            : 1 609 kb/s


Video
ID                          : 1
Format                      : AVC
Format/Info                 : Advanced Video Codec
Format profile              : High@L4.1
Format settings             : CABAC / 5 Ref Frames
Format settings, CABAC      : Yes
Format settings, ReFrames   : 5 frames
Codec ID                    : avc1
Codec ID/Info               : Advanced Video Coding
Duration                    : 1 h 36 min
Bit rate                    : 1 157 kb/s
Width                       : 720 pixels
Height                      : 364 pixels
Display aspect ratio        : 2.35:1
Frame rate mode             : Constant
Frame rate                  : 29.970 (30000/1001) FPS
Color space                 : YUV
Chroma subsampling          : 4:2:0
Bit depth                   : 8 bits
Scan type                   : Progressive
Bits/(Pixel*Frame)          : 0.147
Stream size                 : 802 MiB (72%)
Writing library             : x264 core 148 r2708 86b7198

Tagged date                 : UTC 2017-12-18 17:34:44
Color range                 : Limited
Color primaries             : BT.601 NTSC
Transfer characteristics    : BT.709
Matrix coefficients         : BT.601
Menus                       : 3

Audio
ID                          : 2
Format                      : AC-3
Format/Info                 : Audio Coding 3
Codec ID                    : ac-3
Duration                    : 1 h 36 min
Bit rate mode               : Constant
Bit rate                    : 448 kb/s
Channel(s)                  : 6 channels
Channel positions           : Front: L C R, Side: L R, LFE
Sampling rate               : 48.0 kHz
Frame rate                  : 31.250 FPS (1536 SPF)
Bit depth                   : 16 bits
Compression mode            : Lossy
Stream size                 : 310 MiB (28%)
Title                       : Surround / Surround
Language                    : English
Service kind                : Complete Main
Default                     : Yes
Alternate group             : 1
Encoded date                : UTC 2017-12-18 17:34:44
Tagged date                 : UTC 2017-12-18 17:34:44
Menus                       : 3

Menu
ID                          : 3
Codec ID                    : text
Duration                    : 1 h 36 min
Language                    : English
Encoded date                : UTC 2017-12-18 17:34:44
Tagged date                 : UTC 2017-12-18 17:34:44
Menu For                    : 1,2
00:00:00.000                : Chapter 1
00:00:04.972                : Chapter 2
00:06:06.833                : Chapter 3
00:07:06.893                : Chapter 4
00:09:52.058                : Chapter 5
00:11:05.131                : Chapter 6
00:18:57.103                : Chapter 7
00:22:50.836                : Chapter 8
00:25:41.507                : Chapter 9
00:30:36.468                : Chapter 10
00:33:33.979                : Chapter 11
00:38:08.253                : Chapter 12
00:41:16.941                : Chapter 13
00:45:56.721                : Chapter 14
00:52:04.588                : Chapter 15
00:58:38.482                : Chapter 16
01:01:32.656                : Chapter 17
01:07:59.542                : Chapter 18
01:09:43.146                : Chapter 19
01:25:43.605                : Chapter 20
01:27:12.694                : Chapter 21
01:28:56.798                : Chapter 22
01:32:00.982                : Chapter 23
01:33:05.046                : Chapter 24
Bit rate mode               : VBR



SINGLE DIRECT FAST LINKS

Code:
http://www.heroupload.com/978c77e0635ab9e7/Phullu.2017.Hindi.x264.DVDRIP.DD5.1.Audio-Team.Jio.Exclusive.mp4