Code:
http://www.imdb.com/title/tt7236640/

General
Format                      : MPEG-4
Format profile              : Base Media / Version 2
Codec ID                    : mp42 (isom/mp42)
File size                   : 1.76 GiB
Duration                    : 2 h 22 min
Overall bit rate mode       : Variable
Overall bit rate            : 1 763 kb/s
Encoded date                : UTC 2017-12-11 18:38:28
Tagged date                 : UTC 2017-12-11 18:38:28
gsst                        : 0
gstd                        : 8551978

Video
ID                          : 1
Format                      : AVC
Format/Info                 : Advanced Video Codec
Format profile              : Main@L3.1
Format settings, CABAC      : Yes
Format settings, RefFrames  : 3 frames
Codec ID                    : avc1
Codec ID/Info               : Advanced Video Coding
Duration                    : 2 h 22 min
Bit rate                    : 1 634 kb/s
Width                       : 1 280 pixels
Height                      : 720 pixels
Display aspect ratio        : 16:9
Frame rate mode             : Constant
Frame rate                  : 25.000 FPS
Color space                 : YUV
Chroma subsampling          : 4:2:0
Bit depth                   : 8 bits
Scan type                   : Progressive
Bits/(Pixel*Frame)          : 0.071
Stream size                 : 1.63 GiB (93%)
Title                       : ISO Media file produced by Google Inc. Created on: 12/11/2017.
Encoded date                : UTC 2017-12-11 18:38:28
Tagged date                 : UTC 2017-12-11 18:38:28
Color range                 : Limited
Color primaries             : BT.709
Transfer characteristics    : BT.709
Matrix coefficients         : BT.709

Audio
ID                          : 2
Format                      : AAC
Format/Info                 : Advanced Audio Codec
Format profile              : LC
Codec ID                    : 40
Duration                    : 2 h 22 min
Bit rate mode               : Variable
Bit rate                    : 126 kb/s
Channel(s)                  : 2 channels
Channel positions           : Front: L R
Sampling rate               : 44.1 kHz
Frame rate                  : 43.066 FPS (1024 SPF)
Compression mode            : Lossy
Stream size                 : 128 MiB (7%)
Title                       : ISO Media file produced by Google Inc. Created on: 12/11/2017.
Encoded date                : UTC 2017-12-11 18:38:28
Tagged date                 : UTC 2017-12-11 18:38:28



SINGLE DIRECT FAST LINKS

Code:
http://www.heroupload.com/9406d9a4409ae47f/Toofan.Singh.2017.720p.Untouched.WebHD.x264.AAC-DDR.Exclusive.mp4