Code:
General
Format                      : MPEG-4
Codec ID                    : M4V  (isom/avc1/mp42)
File size                   : 5.48 GiB
Duration                    : 2 h 19 min
Overall bit rate mode       : Variable
Overall bit rate            : 5 615 kb/s
Encoded date                : UTC 2017-12-06 10:10:38
Tagged date                 : UTC 2017-12-06 10:10:38

Video
ID                          : 1
Format                      : AVC
Format/Info                 : Advanced Video Codec
Format profile              : Main@L5.1
Format settings, CABAC      : Yes
Format settings, RefFrames  : 2 frames
Codec ID                    : avc1
Codec ID/Info               : Advanced Video Coding
Duration                    : 2 h 19 min
Bit rate mode               : Constant
Bit rate                    : 5 000 kb/s
Maximum bit rate            : 12.8 Mb/s
Width                       : 3 840 pixels
Height                      : 2 160 pixels
Display aspect ratio        : 16:9
Frame rate mode             : Constant
Frame rate                  : 24.000 FPS
Color space                 : YUV
Chroma subsampling          : 4:2:0
Bit depth                   : 8 bits
Scan type                   : Progressive
Bits/(Pixel*Frame)          : 0.025
Stream size                 : 4.88 GiB (89%)
Encoded date                : UTC 2017-12-06 10:10:38
Tagged date                 : UTC 2017-12-06 10:10:38

Audio #1
ID                          : 2
Format                      : AAC
Format/Info                 : Advanced Audio Codec
Format profile              : LC
Codec ID                    : 40
Duration                    : 2 h 19 min
Bit rate mode               : Variable
Bit rate                    : 96.0 kb/s
Maximum bit rate            : 100 kb/s
Channel(s)                  : 2 channels
Channel positions           : Front: L R
Sampling rate               : 48.0 kHz
Frame rate                  : 46.875 FPS (1024 SPF)
Compression mode            : Lossy
Stream size                 : 93.3 MiB (2%)
Language                    : English
Encoded date                : UTC 2017-12-06 10:10:38
Tagged date                 : UTC 2017-12-06 10:10:38

Audio #2
ID                          : 3
Format                      : AC-3
Format/Info                 : Audio Coding 3
Format settings, Endianness : Big
Codec ID                    : ac-3
Duration                    : 2 h 19 min
Bit rate mode               : Constant
Bit rate                    : 512 kb/s
Channel(s)                  : 6 channels
Channel positions           : Front: L C R, Side: L R, LFE
Sampling rate               : 48.0 kHz
Frame rate                  : 31.250 FPS (1536 SPF)
Bit depth                   : 16 bits
Compression mode            : Lossy
Stream size                 : 512 MiB (9%)
Language                    : English
Service kind                : Complete Main
Encoded date                : UTC 2017-12-06 10:10:38
Tagged date                 : UTC 2017-12-06 10:10:38




SINGLE DIRECT FAST LINKS

Code:
http://www.heroupload.com/6b01e390e65e23c0/Ippadai.Vellum.2017.4K.Untouched.UHD.MP4.Tamil-MTR.mp4
1GB LINKS

Code:
http://www.heroupload.com/550d60338fecb416/Ippadai.Vellum.2017.4K.Untouched.UHD.MP4.Tamil-MTR.part1.rar
http://www.heroupload.com/206674910e862b9d/Ippadai.Vellum.2017.4K.Untouched.UHD.MP4.Tamil-MTR.part2.rar
http://www.heroupload.com/234a8ad97fbb9d68/Ippadai.Vellum.2017.4K.Untouched.UHD.MP4.Tamil-MTR.part3.rar
http://www.heroupload.com/35f0a28798c39205/Ippadai.Vellum.2017.4K.Untouched.UHD.MP4.Tamil-MTR.part4.rar
http://www.heroupload.com/8d347ed82650613f/Ippadai.Vellum.2017.4K.Untouched.UHD.MP4.Tamil-MTR.part5.rar
http://www.heroupload.com/6f2ae0ca9f23659c/Ippadai.Vellum.2017.4K.Untouched.UHD.MP4.Tamil-MTR.part6.rar
http://www.heroupload.com/75f5b4f49c2192d4/Ippadai.Vellum.2017.4K.Untouched.UHD.MP4.Tamil-MTR.srt