Code:
General
Format                      : MPEG-4
Format profile              : Base Media
Codec ID                    : isom (isom)
File size                   : 4.11 GiB
Duration                    : 2 h 13 min
Overall bit rate mode       : Variable
Overall bit rate            : 4 409 kb/s
Encoded date                : UTC 2017-12-07 18:51:47
Tagged date                 : UTC 2017-12-07 18:51:47
Writing application         : MkvToMp4 [www.mkvtomp4.ru] version 0.224 (x64)

Video
ID                          : 1
Format                      : AVC
Format/Info                 : Advanced Video Codec
Format profile              : High@L4
Format settings, CABAC      : Yes
Format settings, RefFrames  : 4 frames
Codec ID                    : avc1
Codec ID/Info               : Advanced Video Coding
Duration                    : 2 h 13 min
Bit rate                    : 4 086 kb/s
Maximum bit rate            : 10.6 Mb/s
Width                       : 1 920 pixels
Height                      : 1 080 pixels
Display aspect ratio        : 16:9
Frame rate mode             : Constant
Frame rate                  : 25.000 FPS
Color space                 : YUV
Chroma subsampling          : 4:2:0
Bit depth                   : 8 bits
Scan type                   : Progressive
Bits/(Pixel*Frame)          : 0.079
Stream size                 : 3.80 GiB (93%)
Writing library             : Zencoder Video Encoding System
Language                    : English
Tagged date                 : UTC 2017-12-07 18:51:55
Color range                 : Limited
Color primaries             : BT.709
Transfer characteristics    : BT.709
Matrix coefficients         : BT.709

Audio
ID                          : 2
Format                      : AAC
Format/Info                 : Advanced Audio Codec
Format profile              : LC
Codec ID                    : 40
Duration                    : 2 h 13 min
Bit rate mode               : Variable
Bit rate                    : 319 kb/s
Maximum bit rate            : 369 kb/s
Channel(s)                  : 2 channels
Channel(s)_Original         : 6 channels
Channel positions           : Front: L C R, Side: L R, LFE
Sampling rate               : 48.0 kHz
Frame rate                  : 46.875 FPS (1024 SPF)
Compression mode            : Lossy
Stream size                 : 304 MiB (7%)
Language                    : English
Default                     : Yes
Alternate group             : 1
Encoded date                : UTC 2017-12-07 18:51:52
Tagged date                 : UTC 2017-12-07 18:51:55




SINGLE DIRECT FAST LINKS

Code:
http://www.heroupload.com/69288723650be94a/Ippadai.Vellum.2017.1080p.v2.HD.AVC.MP4.5.1.ESubs.Tamil-MTR.mp4
1GB LINKS


Code:
http://www.heroupload.com/a63ff305792af4f0/Ippadai.Vellum.2017.1080p.v2.HD.AVC.MP4.5.1.ESubs.Tamil-MTR.part1.rar
http://www.heroupload.com/ea2c21a85cf54360/Ippadai.Vellum.2017.1080p.v2.HD.AVC.MP4.5.1.ESubs.Tamil-MTR.part2.rar
http://www.heroupload.com/3bb5cfaed8a93073/Ippadai.Vellum.2017.1080p.v2.HD.AVC.MP4.5.1.ESubs.Tamil-MTR.part3.rar
http://www.heroupload.com/327fd359bed44a73/Ippadai.Vellum.2017.1080p.v2.HD.AVC.MP4.5.1.ESubs.Tamil-MTR.part4.rar
http://www.heroupload.com/b92ab41f4c3d0494/Ippadai.Vellum.2017.1080p.v2.HD.AVC.MP4.5.1.ESubs.Tamil-MTR.part5.rar
http://www.heroupload.com/7715be3a2d75a296/Ippadai.Vellum.2017.1080p.v2.HD.AVC.MP4.5.1.ESubs.Tamil-MTR.srt