Code:
General
Format                      : MPEG-4
Format profile              : Base Media
Codec ID                    : isom (isom)
File size                   : 2.16 GiB
Duration                    : 2 h 13 min
Overall bit rate mode       : Variable
Overall bit rate            : 2 315 kb/s
Encoded date                : UTC 2017-12-07 18:52:22
Tagged date                 : UTC 2017-12-07 18:52:22
Writing application         : MkvToMp4 [www.mkvtomp4.ru] version 0.224 (x64)

Video
ID                          : 1
Format                      : AVC
Format/Info                 : Advanced Video Codec
Format profile              : Main@L3.1
Format settings, CABAC      : Yes
Format settings, RefFrames  : 4 frames
Codec ID                    : avc1
Codec ID/Info               : Advanced Video Coding
Duration                    : 2 h 13 min
Bit rate                    : 1 992 kb/s
Maximum bit rate            : 5 528 kb/s
Width                       : 1 280 pixels
Height                      : 720 pixels
Display aspect ratio        : 16:9
Frame rate mode             : Constant
Frame rate                  : 25.000 FPS
Color space                 : YUV
Chroma subsampling          : 4:2:0
Bit depth                   : 8 bits
Scan type                   : Progressive
Bits/(Pixel*Frame)          : 0.086
Stream size                 : 1.86 GiB (86%)
Writing library             : Zencoder Video Encoding System
Language                    : English
Tagged date                 : UTC 2017-12-07 18:52:28
Color range                 : Limited
Color primaries             : BT.709
Transfer characteristics    : BT.709
Matrix coefficients         : BT.709

Audio
ID                          : 2
Format                      : AAC
Format/Info                 : Advanced Audio Codec
Format profile              : LC
Codec ID                    : 40
Duration                    : 2 h 13 min
Bit rate mode               : Variable
Bit rate                    : 319 kb/s
Maximum bit rate            : 369 kb/s
Channel(s)                  : 2 channels
Channel(s)_Original         : 6 channels
Channel positions           : Front: L C R, Side: L R, LFE
Sampling rate               : 48.0 kHz
Frame rate                  : 46.875 FPS (1024 SPF)
Compression mode            : Lossy
Stream size                 : 304 MiB (14%)
Language                    : English
Default                     : Yes
Alternate group             : 1
Encoded date                : UTC 2017-12-07 18:52:25
Tagged date                 : UTC 2017-12-07 18:52:28


SINGLE DIRECT FAST LINKS

Code:
http://www.heroupload.com/c94e26c1f47c1ae5/Ippadai.Vellum.2017.720p.v2.HD.AVC.MP4.5.1.ESubs.Tamil-MTR.mp4
700MB LINKS

Code:
http://www.heroupload.com/ff1ee6b9372f5d1a/Ippadai.Vellum.2017.720p.v2.HD.AVC.MP4.5.1.ESubs.Tamil-MTR.part1.rar
http://www.heroupload.com/447ccaa0e8f93f92/Ippadai.Vellum.2017.720p.v2.HD.AVC.MP4.5.1.ESubs.Tamil-MTR.part2.rar
http://www.heroupload.com/46196a7062636227/Ippadai.Vellum.2017.720p.v2.HD.AVC.MP4.5.1.ESubs.Tamil-MTR.part3.rar
http://www.heroupload.com/8031f7ea85402821/Ippadai.Vellum.2017.720p.v2.HD.AVC.MP4.5.1.ESubs.Tamil-MTR.part4.rar
http://www.heroupload.com/61db9e15b0022027/Ippadai.Vellum.2017.720p.v2.HD.AVC.MP4.5.1.ESubs.Tamil-MTR.srt