Code:
http://www.imdb.com/title/tt2238758/

General

Format                                   : Matroska
Format version                           : Version 4 / Version 2
File size                                : 3.08 GiB
Duration                                 : 1h 29mn
Overall bit rate                         : 4 949 Kbps
Encoded date                             : UTC 2017-12-05 05:38:12

Video
ID                                       : 1
Format                                   : AVC
Format/Info                              : Advanced Video Codec
Format profile                           : High@L4.0
Format settings, CABAC                   : Yes
Format settings, ReFrames                : 5 frames
Codec ID                                 : V_MPEG4/ISO/AVC
Duration                                 : 1h 29mn
Bit rate                                 : 4 466 Kbps
Width                                    : 1 920 pixels
Height                                   : 792 pixels
Display aspect ratio                     : 2.40:1
Frame rate mode                          : Constant
Frame rate                               : 25.000 fps
Color space                              : YUV
Chroma subsampling                       : 4:2:0
Bit depth                                : 8 bits
Scan type                                : Progressive
Bits/(Pixel*Frame)                       : 0.117
Stream size                              : 2.78 GiB (90%)
Language                                 : English
Default                                  : Yes
Forced                                   : No
Color primaries                          : BT.709
Transfer characteristics                 : BT.709
Matrix coefficients                      : BT.709

Audio
ID                                       : 2
Format                                   : AC-3
Format/Info                              : Audio Coding 3
Mode extension                           : CM (complete main)
Format settings, Endianness              : Big
Codec ID                                 : A_AC3
Duration                                 : 1h 29mn
Bit rate mode                            : Constant
Bit rate                                 : 384 Kbps
Channel(s)                               : 6 channels
Channel positions                        : Front: L C R, Side: L R, LFE
Sampling rate                            : 48.0 KHz
Bit depth                                : 16 bits
Compression mode                         : Lossy
Delay relative to video                  : -40ms
Stream size                              : 245 MiB (8%)
Language                                 : English
Default                                  : Yes
Forced                                   : No








SINGLE DIRECT FAST LINKS

Code:
http://www.heroupload.com/622c02fa25c13704/Kaufmans.Game.2017.1080p.WEB-DL.H264.DD5.1-TiTAN.mkv
1GB LINKS


Code:
http://www.heroupload.com/8ad64acfc71e73c0/Kaufmans.Game.2017.1080p.WEB-DL.H264.DD5.1-TiTAN.part1.rar
http://www.heroupload.com/3a6c9d1e2ebd0621/Kaufmans.Game.2017.1080p.WEB-DL.H264.DD5.1-TiTAN.part2.rar
http://www.heroupload.com/7c8f538e2e4ad420/Kaufmans.Game.2017.1080p.WEB-DL.H264.DD5.1-TiTAN.part3.rar
http://www.heroupload.com/6ac372619faea3ca/Kaufmans.Game.2017.1080p.WEB-DL.H264.DD5.1-TiTAN.part4.rar