Code:
http://imdb.com/title/tt4180286/

Video
ID                                       : 1
Format                                   : AVC
Format/Info                              : Advanced Video Codec
Format profile                           : High@L4
Format settings                          : CABAC / 5 Ref Frames
Format settings, CABAC                   : Yes
Format settings, ReFrames                : 5 frames
Codec ID                                 : V_MPEG4/ISO/AVC
Duration                                 : 1 h 30 min
Bit rate                                 : 4 509 kb/s
Width                                    : 1 920 pixels
Height                                   : 796 pixels
Display aspect ratio                     : 2.40:1
Frame rate mode                          : Constant
Frame rate                               : 23.976 (24000/1001) FPS
Color space                              : YUV
Chroma subsampling                       : 4:2:0
Bit depth                                : 8 bits
Scan type                                : Progressive
Bits/(Pixel*Frame)                       : 0.123
Stream size                              : 2.84 GiB (90%)
Title                                    : Valley.of.Bones.2017.1080p.WEB-DL.DD5.1.H264-FGT
Language                                 : English
Default                                  : Yes
Forced                                   : No
Color range                              : Limited
Color primaries                          : BT.709
Transfer characteristics                 : BT.709
Matrix coefficients                      : BT.709

Audio
ID                                       : 2
Format                                   : AC-3
Format/Info                              : Audio Coding 3
Codec ID                                 : A_AC3
Duration                                 : 1 h 30 min
Bit rate mode                            : Constant
Bit rate                                 : 384 kb/s
Channel(s)                               : 6 channels
Channel positions                        : Front: L C R, Side: L R, LFE
Sampling rate                            : 48.0 kHz
Frame rate                               : 31.250 FPS (1536 SPF)
Bit depth                                : 16 bits
Compression mode                         : Lossy
Delay relative to video                  : -42 ms
Stream size                              : 248 MiB (8%)
Title                                    : Valley.of.Bones.2017.1080p.WEB-DL.DD5.1.H264-FGT
Language                                 : English
Service kind                             : Complete Main
Default                                  : Yes
Forced                                   : No

Text
ID                                       : 3
Format                                   : UTF-8
Codec ID                                 : S_TEXT/UTF8
Codec ID/Info                            : UTF-8 Plain Text
Language                                 : English
Default                                  : Yes
Forced                                   : No

Menu
00:00:00.000                             : en:1
00:05:14.272                             : en:2
00:11:22.640                             : en:3
00:16:09.009                             : en:4
00:23:30.825                             : en:5
00:28:54.190                             : en:6
00:32:56.432                             : en:7
00:37:42.551                             : en:8
00:44:01.221                             : en:9
00:47:41.107                             : en:10
00:53:49.725                             : en:11
00:59:49.793                             : en:12
01:06:36.449                             : en:13
01:11:50.346                             : en:14
01:17:42.531                             : en:15
01:21:33.428                             : en:16






SINGLE DIRECT FAST LINKS

Code:
http://www.heroupload.com/c4ae331a48407ddc/Valley.of.Bones.2017.1080p.WEB-DL.DD5.1.H264-FGT.mkv
1GB LINKS

Code:
http://www.heroupload.com/1ad70f9a355bc596/Valley.of.Bones.2017.1080p.WEB-DL.DD5.1.H264-FGT.part1.rar
http://www.heroupload.com/e0a68e522fdac3e8/Valley.of.Bones.2017.1080p.WEB-DL.DD5.1.H264-FGT.part2.rar
http://www.heroupload.com/263e9a325e12c5e2/Valley.of.Bones.2017.1080p.WEB-DL.DD5.1.H264-FGT.part3.rar
http://www.heroupload.com/1bc8cf8d94532264/Valley.of.Bones.2017.1080p.WEB-DL.DD5.1.H264-FGT.part4.rar