Code:
General
Format                      : AVI
Format/Info                 : Audio Video Interleave
File size                   : 709 MiB
Duration                    : 3 h 1 min
Overall bit rate mode       : Variable
Overall bit rate            : 546 kb/s

Video
ID                          : 0
Format                      : MPEG-4 Visual
Format profile              : Advanced Simple@L5
Format settings, BVOP       : 2
Format settings, QPel       : No
Format settings, GMC        : No warppoints
Format settings, Matrix     : Default (H.263)
Codec ID                    : XVID
Codec ID/Hint               : XviD
Duration                    : 3 h 1 min
Bit rate                    : 452 kb/s
Width                       : 704 pixels
Height                      : 296 pixels
Display aspect ratio        : 2.40:1
Frame rate                  : 23.976 (24000/1001) FPS
Color space                 : YUV
Chroma subsampling          : 4:2:0
Bit depth                   : 8 bits
Scan type                   : Progressive
Compression mode            : Lossy
Bits/(Pixel*Frame)          : 0.090
Stream size                 : 587 MiB (83%)
Writing library             : XviD 67

Audio
ID                          : 1
Format                      : MPEG Audio
Format version              : Version 1
Format profile              : Layer 3
Mode                        : Joint stereo
Mode extension              : MS Stereo
Codec ID                    : 55
Codec ID/Hint               : MP3
Duration                    : 3 h 1 min
Bit rate mode               : Variable
Bit rate                    : 80.0 kb/s
Channel(s)                  : 2 channels
Sampling rate               : 44.1 kHz
Compression mode            : Lossy
Stream size                 : 106 MiB (15%)
Alignment                   : Aligned on interleaves
Interleave, duration        : 26  ms (0.63 video frame)
Interleave, preload duratio : 138  ms
Writing library             : LAME3.99r
Encoding settings           : -m j -V 4 -q 3 -lowpass 13.5 --abr 80

Text
ID                          : 2
Format                      : SubRip
Duration                    : 3 h 1 min
Bit rate                    : 118 b/s
Compression mode            : Lossless
Stream size                 : 157 KiB (0%)



Buy Premium and Support us.



SINGLE DIRECT FAST LINKS
Code:
http://www.heroupload.com/45400ed7652348c6/Arjun.Reddy.2017.Telugu.HDRip.XviD.700MB.MP3-TMV.avi
http://www.heroupload.com/d830012f72f87228/Arjun.Reddy.2017.Telugu.HDRip.XviD.700MB.MP3-TMV.srt
Code:
http://filefloater.com/69g/Arjun.Reddy.2017.Telugu.HDRip.XviD.700MB.MP3-TMV.avi
http://filefloater.com/69h/Arjun.Reddy.2017.Telugu.HDRip.XviD.700MB.MP3-TMV.srt