Code:
Format                      : Matroska
Format version              : Version 4 / Version 2
File size                   : 1.44 GiB
Duration                    : 2 h 41 min
Overall bit rate            : 1 276 kb/s
Movie name                  : Jagga Jasoos 2017- Hon3y


Video
ID                          : 1
Format                      : AVC
Format/Info                 : Advanced Video Codec
Format profile              : High@L4.1
Format settings, CABAC      : Yes
Format settings, ReFrames   : 8 frames
Codec ID                    : V_MPEG4/ISO/AVC
Duration                    : 2 h 41 min
Bit rate                    : 828 kb/s
Width                       : 720 pixels
Height                      : 304 pixels
Display aspect ratio        : 2.35:1
Frame rate mode             : Constant
Frame rate                  : 23.976 (24000/1001) FPS


Audio
ID                          : 2
Format                      : AC-3
Format/Info                 : Audio Coding 3
Format settings, Endianness : Big
Codec ID                    : A_AC3
Duration                    : 2 h 41 min
Bit rate mode               : Constant
Bit rate                    : 448 kb/s
Channel(s)                  : 6 channels
Channel positions           : Front: L C R, Side: L R, LFE
Sampling rate               : 48.0 kHz
Frame rate                  : 31.250 FPS (1536 spf)
Bit depth                   : 16 bits
Compression mode            : Lossy
Delay relative to video     : 15 ms
Stream size                 : 519 MiB (35%)
Language                    : Hindi
Service kind                : Complete Main
Default                     : Yes
Forced                      : No

Text
ID                          : 3
Format                      : UTF-8
Codec ID                    : S_TEXT/UTF8
Codec ID/Info               : UTF-8 Plain Text
Duration                    : 2 h 36 min
Bit rate                    : 40 b/s
Count of elements           : 1759
Stream size                 : 45.8 KiB (0%)
Language                    : English
Default                     : Yes
Forced                      : No










Buy Premium and Support us.



SINGLE DIRECT FAST LINKS
Code:
http://www.heroupload.com/0b2fc40e3dd1d3fb/Jagga.Jasoos.2017.Hindi.DvDRip.x264.AC3.5.1.ESub-HHD.mkv
Code:
http://filefloater.com/69W/Jagga.Jasoos.2017.Hindi.DvDRip.x264.AC3.5.1.ESub-HHD.mkv