Code:
General
Format                      : MPEG-4
Format profile              : Base Media
Codec ID                    : isom (isom/iso2/mp41)
File size                   : 7.78 GiB
Duration                    : 2 h 13 min
Overall bit rate mode       : Variable
Overall bit rate            : 8 322 kb/s
Movie name                  : Daddy (2017) 1080p WEBHD H263 AAC2.0 ESub-DDR
Performer                   : Action Biography Crime Drama History
Director                    : Ashim Ahluwalia
Actor                       : Arjun Rampal, Aishwarya Rajesh, Nishikant Kamat
Screenplay by               : Ashim Ahluwalia, Arjun Rampal
Producer                    : Rutvij Patel, Arjun Rampal
Production studio           : Raksha Entertainment
Genre                       : Action Biography Crime Drama History
ContentType                 : Short Film
Recorded date               : 2017
Tagged date                 : UTC 2017-10-08 10:17:17
Writing application         : Lavf55.33.100
Cover                       : Yes
Lyrics                      : From the rough streets and back alleys of Central Mumbai comes the sensational true story of Arun Gawli, a man who scripted his own destiny, eventually going on to become one of India's most feared gangsters. Today he remains an enigmatic figure; at once a volatile, power-hungry criminal for some and the respected "Daddy" or a modern day Robin Hood for the working-class neighborhood he belongs to. Daddy follows the intertwined fates of the world-weary Gawli as he attempts to enter politics and a frustrated Police inspector with a secret history of his own. An unfolding jigsaw puzzle, told from different points-of-view and spanning over four decades, Daddy is an unforgettable excursion into the Mumbai underworld.

Video
ID                          : 1
Format                      : MPEG-4 Visual
Format profile              : Simple@L1
Format settings, BVOP       : No
Format settings, QPel       : No
Format settings, GMC        : No warppoints
Format settings, Matrix     : Default (H.263)
Codec ID                    : mp4v-20
Duration                    : 2 h 13 min
Bit rate mode               : Variable
Bit rate                    : 8 094 kb/s
Maximum bit rate            : 184 Mb/s
Width                       : 1 920 pixels
Height                      : 816 pixels
Display aspect ratio        : 2.35:1
Frame rate mode             : Variable
Frame rate                  : 23.976 (23976/1000) FPS
Color space                 : YUV
Chroma subsampling          : 4:2:0
Bit depth                   : 8 bits
Scan type                   : Progressive
Compression mode            : Lossy
Bits/(Pixel*Frame)          : 0.215
Stream size                 : 7.57 GiB (97%)
Writing library             : Lavc55.52.102

Audio
ID                          : 2
Format                      : AAC
Format/Info                 : Advanced Audio Codec
Format profile              : LC
Codec ID                    : mp4a-40-2
Duration                    : 2 h 13 min
Bit rate mode               : Variable
Bit rate                    : 222 kb/s
Maximum bit rate            : 341 kb/s
Channel(s)                  : 2 channels
Channel positions           : Front: L R
Sampling rate               : 48.0 kHz
Frame rate                  : 46.875 FPS (1024 SPF)
Compression mode            : Lossy
Stream size                 : 213 MiB (3%)
Default                     : Yes

















SINGLE DIRECT FAST LINKS

Code:
http://www.heroupload.com/55eec9a8ed439690/Daddy.2017.1080p.WEBHD.H263.AA.2.0.ESub-DDR.mp4
1GB LINKS

Code:
http://www.heroupload.com/b189270d3965bfd0/Daddy.2017.1080p.WEBHD.H263.AA.2.0.ESub-DDR.part1.rar
http://www.heroupload.com/48b6ec9f6538610c/Daddy.2017.1080p.WEBHD.H263.AA.2.0.ESub-DDR.part2.rar
http://www.heroupload.com/815735c6405414a3/Daddy.2017.1080p.WEBHD.H263.AA.2.0.ESub-DDR.part3.rar
http://www.heroupload.com/c768885fe6c561cd/Daddy.2017.1080p.WEBHD.H263.AA.2.0.ESub-DDR.part4.rar
http://www.heroupload.com/92c6a53a589f103e/Daddy.2017.1080p.WEBHD.H263.AA.2.0.ESub-DDR.part5.rar
http://www.heroupload.com/822dcdee837cfe98/Daddy.2017.1080p.WEBHD.H263.AA.2.0.ESub-DDR.part6.rar
http://www.heroupload.com/a18d898a88a9925d/Daddy.2017.1080p.WEBHD.H263.AA.2.0.ESub-DDR.part7.rar
http://www.heroupload.com/f3595f16a96faa5a/Daddy.2017.1080p.WEBHD.H263.AA.2.0.ESub-DDR.part8.rar
http://www.heroupload.com/fd570c70ed846358/Daddy.2017.1080p.WEBHD.H263.AA.2.0.ESub-DDR.srt
Code:
http://filefloater.com/65V/Daddy.2017.1080p.WEBHD.H263.AA.2.0.ESub-DDR.part1.rar
http://filefloater.com/65W/Daddy.2017.1080p.WEBHD.H263.AA.2.0.ESub-DDR.part2.rar
http://filefloater.com/65X/Daddy.2017.1080p.WEBHD.H263.AA.2.0.ESub-DDR.part3.rar
http://filefloater.com/65Y/Daddy.2017.1080p.WEBHD.H263.AA.2.0.ESub-DDR.part4.rar
http://filefloater.com/65Z/Daddy.2017.1080p.WEBHD.H263.AA.2.0.ESub-DDR.part5.rar
http://filefloater.com/660/Daddy.2017.1080p.WEBHD.H263.AA.2.0.ESub-DDR.part6.rar
http://filefloater.com/661/Daddy.2017.1080p.WEBHD.H263.AA.2.0.ESub-DDR.part7.rar
http://filefloater.com/662/Daddy.2017.1080p.WEBHD.H263.AA.2.0.ESub-DDR.part8.rar
http://filefloater.com/663/Daddy.2017.1080p.WEBHD.H263.AA.2.0.ESub-DDR.srt