Code:
General
Format                      : Matroska
Format version              : Version 4 / Version 2
File size                   : 674 MiB
Duration                    : 2 h 42 min
Overall bit rate            : 579 kb/s
Encoded date                : UTC 2017-08-12 14:21:50
Writing application         : mkvmerge v7.2.0 ('On Every Street') 32bit built on Sep 13 2014 15:42:11
Writing library             : libebml v1.3.0 + libmatroska v1.4.1

Video
ID                          : 1
Format                      : AVC
Format/Info                 : Advanced Video Codec
Format profile              : Main@L3.1
Format settings, CABAC      : Yes
Format settings, ReFrames   : 4 frames
Codec ID                    : V_MPEG4/ISO/AVC
Duration                    : 2 h 42 min
Bit rate                    : 385 kb/s
Width                       : 480 pixels
Height                      : 320 pixels
Display aspect ratio        : 2.509
Original display aspect rat : 2.510
Frame rate mode             : Constant
Frame rate                  : 23.976 (24000/1001) FPS
Color space                 : YUV
Chroma subsampling          : 4:2:0
Bit depth                   : 8 bits
Scan type                   : Progressive
Bits/(Pixel*Frame)          : 0.105
Stream size                 : 448 MiB (67%)
Writing library             : x264 core 148 r2708 86b7198
Encoding settings           : cabac=1 / ref=1 / deblock=1:0:0 / analyse=0x1:0x111 / me=hex / subme=2 / psy=1 / psy_rd=1.00:0.00 / mixed_ref=0 / me_range=16 / chroma_me=1 / trellis=0 / 8x8dct=0 / cqm=0 / deadzone=21,11 / fast_pskip=1 / chroma_qp_offset=0 / threads=6 / lookahead_threads=2 / sliced_threads=0 / nr=0 / decimate=1 / interlaced=0 / bluray_compat=0 / constrained_intra=0 / bframes=3 / b_pyramid=2 / b_adapt=1 / b_bias=0 / direct=1 / weightb=1 / open_gop=0 / weightp=1 / keyint=240 / keyint_min=24 / scenecut=40 / intra_refresh=0 / rc_lookahead=10 / rc=crf / mbtree=1 / crf=22.0 / qcomp=0.60 / qpmin=0 / qpmax=69 / qpstep=4 / vbv_maxrate=14000 / vbv_bufsize=14000 / crf_max=0.0 / nal_hrd=none / filler=0 / ip_ratio=1.40 / aq=1:1.00
Language                    : Malayalam
Default                     : Yes
Forced                      : No
Color range                 : Limited
Color primaries             : BT.601 NTSC
Transfer characteristics    : BT.709
Matrix coefficients         : BT.601

Audio
ID                          : 2
Format                      : MPEG Audio
Format version              : Version 1
Format profile              : Layer 3
Mode                        : Joint stereo
Mode extension              : MS Stereo
Codec ID                    : A_MPEG/L3
Codec ID/Hint               : MP3
Duration                    : 2 h 42 min
Bit rate mode               : Constant
Bit rate                    : 192 kb/s
Channel(s)                  : 2 channels
Sampling rate               : 44.1 kHz
Frame rate                  : 38.281 FPS (1152 spf)
Compression mode            : Lossy
Delay relative to video     : -21 ms
Stream size                 : 223 MiB (33%)
Writing library             : LAME3.98.2
Language                    : Malayalam
Default                     : Yes
Forced                      : No

Menu
00:00:00.000                : :Chapter 1
00:01:21.707                : :Chapter 2
00:04:30.896                : :Chapter 3
00:13:09.914                : :Chapter 4
00:20:00.324                : :Chapter 5
00:22:13.415                : :Chapter 6
00:30:23.205                : :Chapter 7
00:54:22.017                : :Chapter 8
00:58:23.759                : :Chapter 9
01:07:12.662                : :Chapter 10
01:17:33.858                : :Chapter 11
01:29:48.592                : :Chapter 12
01:36:59.022                : :Chapter 13
01:40:01.204                : :Chapter 14
01:59:47.013                : :Chapter 15
02:15:22.323                : :Chapter 16
02:23:50.330                : :Chapter 17
02:38:33.713                : :Chapter 18






SINGLE DIRECT FAST LINKS

Code:
http://www.heroupload.com/b610c114b483fedb/Adventures.of.Omanakuttan.2017.Malayalam.DVDRip.700MB.x264.1CD.MP3-TMV.mkv
Code:
http://filefloater.com/JO/Adventures.of.Omanakuttan.2017.Malayalam.DVDRip.700MB.x264.1CD.MP3-TMV.mkv