Code:
Format                      : MPEG-4
Codec ID                    : M4V  (isom/avc1/mp42)
File size                   : 4.53 GiB
Duration                    : 1 h 56 min
Overall bit rate mode       : Variable
Overall bit rate            : 5 552 kb/s
Encoded date                : UTC 2017-09-27 07:37:52
Tagged date                 : UTC 2017-09-27 07:37:52

Video
ID                          : 1
Format                      : AVC
Format/Info                 : Advanced Video Codec
Format profile              : Main@L5.1
Format settings, CABAC      : Yes
Format settings, RefFrames  : 2 frames
Codec ID                    : avc1
Codec ID/Info               : Advanced Video Coding
Duration                    : 1 h 56 min
Source duration             : 1 h 56 min
Bit rate mode               : Constant
Bit rate                    : 5 000 kb/s
Maximum bit rate            : 12.1 Mb/s
Width                       : 3 840 pixels
Height                      : 2 160 pixels
Display aspect ratio        : 16:9
Frame rate mode             : Constant
Frame rate                  : 25.000 FPS
Color space                 : YUV
Chroma subsampling          : 4:2:0
Bit depth                   : 8 bits
Scan type                   : Progressive
Bits/(Pixel*Frame)          : 0.024
Stream size                 : 4.08 GiB (90%)
Source stream size          : 4.08 GiB (90%)
Encoded date                : UTC 2017-09-27 07:37:52
Tagged date                 : UTC 2017-09-27 07:37:52

Audio #1
ID                          : 2
Format                      : AAC
Format/Info                 : Advanced Audio Codec
Format profile              : LC
Codec ID                    : 40
Duration                    : 1 h 56 min
Bit rate mode               : Variable
Bit rate                    : 96.0 kb/s
Maximum bit rate            : 100 kb/s
Channel(s)                  : 2 channels
Channel positions           : Front: L R
Sampling rate               : 48.0 kHz
Frame rate                  : 46.875 FPS (1024 SPF)
Compression mode            : Lossy
Stream size                 : 78.1 MiB (2%)
Encoded date                : UTC 2017-09-27 07:37:52
Tagged date                 : UTC 2017-09-27 07:37:52

Audio #2
ID                          : 3
Format                      : AC-3
Format/Info                 : Audio Coding 3
Format settings, Endianness : Big
Codec ID                    : ac-3
Duration                    : 1 h 56 min
Bit rate mode               : Constant
Bit rate                    : 448 kb/s
Channel(s)                  : 6 channels
Channel positions           : Front: L C R, Side: L R, LFE
Sampling rate               : 48.0 kHz
Frame rate                  : 31.250 FPS (1536 SPF)
Bit depth                   : 16 bits
Compression mode            : Lossy
Stream size                 : 375 MiB (8%)
Service kind                : Complete Main
Encoded date                : UTC 2017-09-27 07:37:52
Tagged date                 : UTC 2017-09-27 07:37:52




SINGLE DIRECT FAST LINKS

Code:
http://www.heroupload.com/112f01e73987e94d/Kathanayagan.2017.Ultra.HD.4K.Untouched.AVC.Dolby.5.1.ESUB-Team.TMR.mp4
Code:
http://filefloater.com/8xh/Kathanayagan.2017.Ultra.HD.4K.Untouched.AVC.Dolby.5.1.ESUB-Team.TMR.mp4
1GB LINKS

Code:
http://www.heroupload.com/ba64a4081ed4c90a/Kathanayagan.2017.Ultra.HD.4K.Untouched.AVC.Dolby.5.1.ESUB-Team.TMR.part1.rar
http://www.heroupload.com/c445221c05141f70/Kathanayagan.2017.Ultra.HD.4K.Untouched.AVC.Dolby.5.1.ESUB-Team.TMR.part2.rar
http://www.heroupload.com/76c3489adcfafa7d/Kathanayagan.2017.Ultra.HD.4K.Untouched.AVC.Dolby.5.1.ESUB-Team.TMR.part3.rar
http://www.heroupload.com/26218e7ed37b62e4/Kathanayagan.2017.Ultra.HD.4K.Untouched.AVC.Dolby.5.1.ESUB-Team.TMR.part4.rar
http://www.heroupload.com/81ca840c556ec9b1/Kathanayagan.2017.Ultra.HD.4K.Untouched.AVC.Dolby.5.1.ESUB-Team.TMR.part5.rar
http://www.heroupload.com/8357bc0eb31329bb/Kathanayagan.2017.Ultra.HD.4K.Untouched.AVC.Dolby.5.1.ESUB-Team.TMR.srt
Code:
http://filefloater.com/8xi/Kathanayagan.2017.Ultra.HD.4K.Untouched.AVC.Dolby.5.1.ESUB-Team.TMR.part1.rar
http://filefloater.com/8xj/Kathanayagan.2017.Ultra.HD.4K.Untouched.AVC.Dolby.5.1.ESUB-Team.TMR.part2.rar
http://filefloater.com/8xk/Kathanayagan.2017.Ultra.HD.4K.Untouched.AVC.Dolby.5.1.ESUB-Team.TMR.part3.rar
http://filefloater.com/8xl/Kathanayagan.2017.Ultra.HD.4K.Untouched.AVC.Dolby.5.1.ESUB-Team.TMR.part4.rar
http://filefloater.com/8xm/Kathanayagan.2017.Ultra.HD.4K.Untouched.AVC.Dolby.5.1.ESUB-Team.TMR.part5.rar
http://filefloater.com/8xn/Kathanayagan.2017.Ultra.HD.4K.Untouched.AVC.Dolby.5.1.ESUB-Team.TMR.srt