Code:
General
Format                      : MPEG-4
Format profile              : Base Media
Codec ID                    : isom (isom)
File size                   : 3.59 GiB
Duration                    : 1 h 56 min
Overall bit rate mode       : Variable
Overall bit rate            : 4 405 kb/s
Encoded date                : UTC 2017-09-28 18:46:43
Tagged date                 : UTC 2017-09-28 18:46:43
Writing application         : MkvToMp4 [www.mkvtomp4.ru] version 0.224 (x64)

Video
ID                          : 1
Format                      : AVC
Format/Info                 : Advanced Video Codec
Format profile              : High@L4
Format settings, CABAC      : Yes
Format settings, RefFrames  : 4 frames
Format settings, GOP        : M=3, N=25
Codec ID                    : avc1
Codec ID/Info               : Advanced Video Coding
Duration                    : 1 h 56 min
Bit rate                    : 4 089 kb/s
Maximum bit rate            : 10.8 Mb/s
Width                       : 1 920 pixels
Height                      : 1 080 pixels
Display aspect ratio        : 16:9
Frame rate mode             : Constant
Frame rate                  : 25.000 FPS
Color space                 : YUV
Chroma subsampling          : 4:2:0
Bit depth                   : 8 bits
Scan type                   : Progressive
Bits/(Pixel*Frame)          : 0.079
Stream size                 : 3.33 GiB (93%)
Writing library             : Zencoder Video Encoding System
Language                    : English
Tagged date                 : UTC 2017-09-28 18:46:52
Color range                 : Limited
Color primaries             : BT.709
Transfer characteristics    : BT.709
Matrix coefficients         : BT.709

Audio
ID                          : 2
Format                      : AAC
Format/Info                 : Advanced Audio Codec
Format profile              : LC
Codec ID                    : 40
Duration                    : 1 h 56 min
Bit rate mode               : Variable
Bit rate                    : 312 kb/s
Maximum bit rate            : 389 kb/s
Channel(s)                  : 2 channels
Channel(s)_Original         : 6 channels
Channel positions           : Front: L C R, Side: L R, LFE
Sampling rate               : 48.0 kHz
Frame rate                  : 46.875 FPS (1024 SPF)
Compression mode            : Lossy
Stream size                 : 261 MiB (7%)
Language                    : English
Default                     : Yes
Alternate group             : 1
Encoded date                : UTC 2017-09-28 18:46:49
Tagged date                 : UTC 2017-09-28 18:46:52






SINGLE DIRECT FAST LINKS

Code:
http://www.heroupload.com/f0da96d65d7972ce/Kathanayagan.2017.1080p.v2.HD.AVC.5.1.MP4.ESubs.Tamil-MTR.mp4
Code:
http://filefloater.com/3kz/Kathanayagan.2017.1080p.v2.HD.AVC.5.1.MP4.ESubs.Tamil-MTR.mp4
1GB LINKS

Code:
http://www.heroupload.com/c9815acf5fdf9e3b/Kathanayagan.2017.1080p.v2.HD.AVC.5.1.MP4.ESubs.Tamil-MTR.part1.rar
http://www.heroupload.com/7fdcab41e48793fc/Kathanayagan.2017.1080p.v2.HD.AVC.5.1.MP4.ESubs.Tamil-MTR.part2.rar
http://www.heroupload.com/2a8a5548de1fb24e/Kathanayagan.2017.1080p.v2.HD.AVC.5.1.MP4.ESubs.Tamil-MTR.part3.rar
http://www.heroupload.com/fd88ab95a3b00fac/Kathanayagan.2017.1080p.v2.HD.AVC.5.1.MP4.ESubs.Tamil-MTR.part4.rar
http://www.heroupload.com/522fba7289112e13/Kathanayagan.2017.1080p.v2.HD.AVC.5.1.MP4.ESubs.Tamil-MTR.srt
Code:
http://filefloater.com/8xa/Kathanayagan.2017.1080p.v2.HD.AVC.5.1.MP4.ESubs.Tamil-MTR.part1.rar
http://filefloater.com/8xb/Kathanayagan.2017.1080p.v2.HD.AVC.5.1.MP4.ESubs.Tamil-MTR.part2.rar
http://filefloater.com/8xc/Kathanayagan.2017.1080p.v2.HD.AVC.5.1.MP4.ESubs.Tamil-MTR.part3.rar
http://filefloater.com/8xd/Kathanayagan.2017.1080p.v2.HD.AVC.5.1.MP4.ESubs.Tamil-MTR.part4.rar
http://filefloater.com/8xe/Kathanayagan.2017.1080p.v2.HD.AVC.5.1.MP4.ESubs.Tamil-MTR.srt