Code:
General
Format                      : MPEG-4
Format profile              : Base Media
Codec ID                    : isom (isom)
File size                   : 3.95 GiB
Duration                    : 2 h 10 min
Overall bit rate mode       : Variable
Overall bit rate            : 4 347 kb/s
Encoded date                : UTC 2017-09-28 19:15:21
Tagged date                 : UTC 2017-09-28 19:15:21
Writing application         : MkvToMp4 [www.mkvtomp4.ru] version 0.224 (x64)

Video
ID                          : 1
Format                      : AVC
Format/Info                 : Advanced Video Codec
Format profile              : High@L4
Format settings, CABAC      : Yes
Format settings, RefFrames  : 3 frames
Codec ID                    : avc1
Codec ID/Info               : Advanced Video Coding
Duration                    : 2 h 10 min
Source duration             : 2 h 10 min
Bit rate mode               : Constant
Bit rate                    : 4 250 kb/s
Maximum bit rate            : 8 330 kb/s
Width                       : 1 920 pixels
Height                      : 1 080 pixels
Display aspect ratio        : 16:9
Frame rate mode             : Constant
Frame rate                  : 29.970 (30000/1001) FPS
Color space                 : YUV
Chroma subsampling          : 4:2:0
Bit depth                   : 8 bits
Scan type                   : Progressive
Bits/(Pixel*Frame)          : 0.068
Stream size                 : 3.70 GiB (94%)
Source stream size          : 3.87 GiB (98%)
Language                    : English
Tagged date                 : UTC 2017-09-28 19:15:35

Audio
ID                          : 2
Format                      : AAC
Format/Info                 : Advanced Audio Codec
Format profile              : LC
Codec ID                    : 40
Duration                    : 2 h 10 min
Bit rate mode               : Variable
Bit rate                    : 93.4 kb/s
Maximum bit rate            : 100 kb/s
Channel(s)                  : 2 channels
Channel positions           : Front: L R
Sampling rate               : 48.0 kHz
Frame rate                  : 46.875 FPS (1024 SPF)
Compression mode            : Lossy
Stream size                 : 87.0 MiB (2%)
Language                    : English
Default                     : Yes
Alternate group             : 1
Encoded date                : UTC 2017-09-28 19:15:32
Tagged date                 : UTC 2017-09-28 19:15:35




SINGLE DIRECT FAST LINKS
Code:
http://www.heroupload.com/4851f5d44d509ff7/Vasuki.2017.1080p.HD.AVC.MP4.Tamil-MTR.mp4
Code:
http://filefloater.com/3lm/Vasuki.2017.1080p.HD.AVC.MP4.Tamil-MTR.mp4
1GB LINKS

Code:
http://www.heroupload.com/67f8db802f27b69d/Vasuki.2017.1080p.HD.AVC.MP4.Tamil-MTR.part1.rar
http://www.heroupload.com/44564a78d156035d/Vasuki.2017.1080p.HD.AVC.MP4.Tamil-MTR.part2.rar
http://www.heroupload.com/ded09e724a0027bb/Vasuki.2017.1080p.HD.AVC.MP4.Tamil-MTR.part3.rar
http://www.heroupload.com/aad2a261de0ac5bc/Vasuki.2017.1080p.HD.AVC.MP4.Tamil-MTR.part4.rar
Code:
http://filefloater.com/3ln/Vasuki.2017.1080p.HD.AVC.MP4.Tamil-MTR.part1.rar
http://filefloater.com/3lo/Vasuki.2017.1080p.HD.AVC.MP4.Tamil-MTR.part2.rar
http://filefloater.com/3lp/Vasuki.2017.1080p.HD.AVC.MP4.Tamil-MTR.part3.rar
http://filefloater.com/3lq/Vasuki.2017.1080p.HD.AVC.MP4.Tamil-MTR.part4.rar