Code:
General
Format                      : MPEG-4
Format profile              : Base Media
Codec ID                    : isom (isom)
File size                   : 3.04 GiB
Duration                    : 2 h 10 min
Overall bit rate mode       : Variable
Overall bit rate            : 3 347 kb/s
Encoded date                : UTC 2017-09-28 19:17:39
Tagged date                 : UTC 2017-09-28 19:17:39
Writing application         : MkvToMp4 [www.mkvtomp4.ru] version 0.224 (x64)

Video
ID                          : 1
Format                      : AVC
Format/Info                 : Advanced Video Codec
Format profile              : Main@L3.1
Format settings, CABAC      : Yes
Format settings, RefFrames  : 3 frames
Codec ID                    : avc1
Codec ID/Info               : Advanced Video Coding
Duration                    : 2 h 10 min
Source duration             : 2 h 10 min
Bit rate mode               : Constant
Bit rate                    : 3 250 kb/s
Maximum bit rate            : 6 308 kb/s
Width                       : 1 280 pixels
Height                      : 720 pixels
Display aspect ratio        : 16:9
Frame rate mode             : Constant
Frame rate                  : 29.970 (30000/1001) FPS
Color space                 : YUV
Chroma subsampling          : 4:2:0
Bit depth                   : 8 bits
Scan type                   : Progressive
Bits/(Pixel*Frame)          : 0.118
Stream size                 : 2.83 GiB (93%)
Source stream size          : 2.96 GiB (97%)
Language                    : English
Tagged date                 : UTC 2017-09-28 19:17:48

Audio
ID                          : 2
Format                      : AAC
Format/Info                 : Advanced Audio Codec
Format profile              : LC
Codec ID                    : 40
Duration                    : 2 h 10 min
Bit rate mode               : Variable
Bit rate                    : 93.4 kb/s
Maximum bit rate            : 100 kb/s
Channel(s)                  : 2 channels
Channel positions           : Front: L R
Sampling rate               : 48.0 kHz
Frame rate                  : 46.875 FPS (1024 SPF)
Compression mode            : Lossy
Stream size                 : 87.0 MiB (3%)
Language                    : English
Default                     : Yes
Alternate group             : 1
Encoded date                : UTC 2017-09-28 19:17:45
Tagged date                 : UTC 2017-09-28 19:17:48



SINGLE DIRECT FAST LINKS

Code:
http://www.heroupload.com/42263799aab9c6f9/Vasuki.2017.720p.HD.AVC.MP4.Tamil-MTR.mp4
Code:
http://filefloater.com/3lh/Vasuki.2017.720p.HD.AVC.MP4.Tamil-MTR.mp4
1GB LINKS
Code:
http://www.heroupload.com/16a64e2447d7fc05/Vasuki.2017.720p.HD.AVC.MP4.Tamil-MTR.part1.rar
http://www.heroupload.com/55e2b5529d4313c3/Vasuki.2017.720p.HD.AVC.MP4.Tamil-MTR.part2.rar
http://www.heroupload.com/a03e543ca4cae14f/Vasuki.2017.720p.HD.AVC.MP4.Tamil-MTR.part3.rar
http://www.heroupload.com/492385aab96ae58d/Vasuki.2017.720p.HD.AVC.MP4.Tamil-MTR.part4.rar
Code:
http://filefloater.com/3li/Vasuki.2017.720p.HD.AVC.MP4.Tamil-MTR.part1.rar
http://filefloater.com/3lj/Vasuki.2017.720p.HD.AVC.MP4.Tamil-MTR.part2.rar
http://filefloater.com/3lk/Vasuki.2017.720p.HD.AVC.MP4.Tamil-MTR.part3.rar
http://filefloater.com/3ll/Vasuki.2017.720p.HD.AVC.MP4.Tamil-MTR.part4.rar