Code:
General
Format                      : MPEG-4
Codec ID                    : M4V  (isom/avc1/mp42)
File size                   : 4.74 GiB
Duration                    : 2 h 0 min
Overall bit rate mode       : Variable
Overall bit rate            : 5 615 kb/s
Encoded date                : UTC 2017-09-27 08:01:25
Tagged date                 : UTC 2017-09-27 08:01:25

Video
ID                          : 1
Format                      : AVC
Format/Info                 : Advanced Video Codec
Format profile              : Main@L5.1
Format settings, CABAC      : Yes
Format settings, RefFrames  : 2 frames
Codec ID                    : avc1
Codec ID/Info               : Advanced Video Coding
Duration                    : 2 h 0 min
Bit rate mode               : Constant
Bit rate                    : 5 000 kb/s
Maximum bit rate            : 12.9 Mb/s
Width                       : 3 840 pixels
Height                      : 2 160 pixels
Display aspect ratio        : 16:9
Frame rate mode             : Constant
Frame rate                  : 24.000 FPS
Color space                 : YUV
Chroma subsampling          : 4:2:0
Bit depth                   : 8 bits
Scan type                   : Progressive
Bits/(Pixel*Frame)          : 0.025
Stream size                 : 4.22 GiB (89%)
Encoded date                : UTC 2017-09-27 08:01:25
Tagged date                 : UTC 2017-09-27 08:01:25

Audio #1
ID                          : 2
Format                      : AAC
Format/Info                 : Advanced Audio Codec
Format profile              : LC
Codec ID                    : 40
Duration                    : 2 h 0 min
Bit rate mode               : Variable
Bit rate                    : 96.0 kb/s
Maximum bit rate            : 100 kb/s
Channel(s)                  : 2 channels
Channel positions           : Front: L R
Sampling rate               : 48.0 kHz
Frame rate                  : 46.875 FPS (1024 SPF)
Compression mode            : Lossy
Stream size                 : 80.8 MiB (2%)
Language                    : English
Encoded date                : UTC 2017-09-27 08:01:25
Tagged date                 : UTC 2017-09-27 08:01:25

Audio #2
ID                          : 3
Format                      : AC-3
Format/Info                 : Audio Coding 3
Format settings, Endianness : Big
Codec ID                    : ac-3
Duration                    : 2 h 0 min
Bit rate mode               : Constant
Bit rate                    : 512 kb/s
Channel(s)                  : 6 channels
Channel positions           : Front: L C R, Side: L R, LFE
Sampling rate               : 48.0 kHz
Frame rate                  : 31.250 FPS (1536 SPF)
Bit depth                   : 16 bits
Compression mode            : Lossy
Stream size                 : 443 MiB (9%)
Language                    : English
Service kind                : Complete Main
Encoded date                : UTC 2017-09-27 08:01:25
Tagged date                 : UTC 2017-09-27 08:01:25



SINGLE DIRECT FAST LINKS
Code:
http://www.heroupload.com/e0192c706ac95612/Puriyaatha.Puthir.2017.Ultra.HD.4K.Untouched.AVC.Dolby.5.1.ESUB-Team.TMR.mp4
Code:
http://filefloater.com/8xy/Puriyaatha.Puthir.2017.Ultra.HD.4K.Untouched.AVC.Dolby.5.1.ESUB-Team.TMR.mp4
1GB LINKS
Code:
http://www.heroupload.com/8ab607e4c45acc8f/Puriyaatha.Puthir.2017.Ultra.HD.4K.Untouched.AVC.Dolby.5.1.ESUB-Team.TMR.part1.rar
http://www.heroupload.com/d2ec27923237bd05/Puriyaatha.Puthir.2017.Ultra.HD.4K.Untouched.AVC.Dolby.5.1.ESUB-Team.TMR.part2.rar
http://www.heroupload.com/066e18e7825b77bf/Puriyaatha.Puthir.2017.Ultra.HD.4K.Untouched.AVC.Dolby.5.1.ESUB-Team.TMR.part3.rar
http://www.heroupload.com/ec22edba27cf3f8c/Puriyaatha.Puthir.2017.Ultra.HD.4K.Untouched.AVC.Dolby.5.1.ESUB-Team.TMR.part4.rar
http://www.heroupload.com/e78acce40cfca757/Puriyaatha.Puthir.2017.Ultra.HD.4K.Untouched.AVC.Dolby.5.1.ESUB-Team.TMR.part5.rar
Code:
http://filefloater.com/8xz/Puriyaatha.Puthir.2017.Ultra.HD.4K.Untouched.AVC.Dolby.5.1.ESUB-Team.TMR.part1.rar
http://filefloater.com/3l0/Puriyaatha.Puthir.2017.Ultra.HD.4K.Untouched.AVC.Dolby.5.1.ESUB-Team.TMR.part2.rar
http://filefloater.com/3l1/Puriyaatha.Puthir.2017.Ultra.HD.4K.Untouched.AVC.Dolby.5.1.ESUB-Team.TMR.part3.rar
http://filefloater.com/3l2/Puriyaatha.Puthir.2017.Ultra.HD.4K.Untouched.AVC.Dolby.5.1.ESUB-Team.TMR.part4.rar
http://filefloater.com/3l3/Puriyaatha.Puthir.2017.Ultra.HD.4K.Untouched.AVC.Dolby.5.1.ESUB-Team.TMR.part5.rar