Code:
General
Format                      : MPEG-4
Format profile              : Base Media
Codec ID                    : isom (isom)
File size                   : 3.69 GiB
Duration                    : 2 h 0 min
Overall bit rate mode       : Variable
Overall bit rate            : 4 395 kb/s
Encoded date                : UTC 2017-09-28 19:01:52
Tagged date                 : UTC 2017-09-28 19:01:52
Writing application         : MkvToMp4 [www.mkvtomp4.ru] version 0.224 (x64)

Video
ID                          : 1
Format                      : AVC
Format/Info                 : Advanced Video Codec
Format profile              : High@L4
Format settings, CABAC      : Yes
Format settings, RefFrames  : 4 frames
Codec ID                    : avc1
Codec ID/Info               : Advanced Video Coding
Duration                    : 2 h 0 min
Bit rate                    : 4 077 kb/s
Maximum bit rate            : 9 960 kb/s
Width                       : 1 920 pixels
Height                      : 1 080 pixels
Display aspect ratio        : 16:9
Frame rate mode             : Constant
Frame rate                  : 24.000 FPS
Color space                 : YUV
Chroma subsampling          : 4:2:0
Bit depth                   : 8 bits
Scan type                   : Progressive
Bits/(Pixel*Frame)          : 0.082
Stream size                 : 3.42 GiB (93%)
Writing library             : Zencoder Video Encoding System
Language                    : English
Tagged date                 : UTC 2017-09-28 19:02:05
Color range                 : Limited
Color primaries             : BT.709
Transfer characteristics    : BT.709
Matrix coefficients         : BT.709

Audio
ID                          : 2
Format                      : AAC
Format/Info                 : Advanced Audio Codec
Format profile              : LC
Codec ID                    : 40
Duration                    : 2 h 0 min
Bit rate mode               : Variable
Bit rate                    : 315 kb/s
Maximum bit rate            : 372 kb/s
Channel(s)                  : 2 channels
Channel(s)_Original         : 6 channels
Channel positions           : Front: L C R, Side: L R, LFE
Sampling rate               : 48.0 kHz
Frame rate                  : 46.875 FPS (1024 SPF)
Compression mode            : Lossy
Stream size                 : 271 MiB (7%)
Language                    : English
Default                     : Yes
Alternate group             : 1
Encoded date                : UTC 2017-09-28 19:02:00
Tagged date                 : UTC 2017-09-28 19:02:05


SINGLE DIRECT FAST LINKS

Code:
http://www.heroupload.com/b80125931dad86ae/Puriyatha.Puthir.2017.1080p.v2.HD.AVC.5.1.MP4.Tamil-MTR.mp4
Code:
http://filefloater.com/3l5/Puriyatha.Puthir.2017.1080p.v2.HD.AVC.5.1.MP4.Tamil-MTR.mp4
1GB LINKS

Code:
http://www.heroupload.com/66bd5f27e620f2a2/Puriyatha.Puthir.2017.1080p.v2.HD.AVC.5.1.MP4.Tamil-MTR.part1.rar
http://www.heroupload.com/06a4aee5ec328db3/Puriyatha.Puthir.2017.1080p.v2.HD.AVC.5.1.MP4.Tamil-MTR.part2.rar
http://www.heroupload.com/250ee8044d76cf95/Puriyatha.Puthir.2017.1080p.v2.HD.AVC.5.1.MP4.Tamil-MTR.part3.rar
http://www.heroupload.com/ac7af0db99d703c6/Puriyatha.Puthir.2017.1080p.v2.HD.AVC.5.1.MP4.Tamil-MTR.part4.rar
Code:
http://filefloater.com/3l6/Puriyatha.Puthir.2017.1080p.v2.HD.AVC.5.1.MP4.Tamil-MTR.part1.rar
http://filefloater.com/3l7/Puriyatha.Puthir.2017.1080p.v2.HD.AVC.5.1.MP4.Tamil-MTR.part2.rar
http://filefloater.com/3l8/Puriyatha.Puthir.2017.1080p.v2.HD.AVC.5.1.MP4.Tamil-MTR.part3.rar
http://filefloater.com/3l9/Puriyatha.Puthir.2017.1080p.v2.HD.AVC.5.1.MP4.Tamil-MTR.part4.rar