Code:
General
Format                      : AVI
Format/Info                 : Audio Video Interleave
File size                   : 714 MiB
Duration                    : 2 h 28 min
Overall bit rate            : 671 kb/s

Video
ID                          : 0
Format                      : MPEG-4 Visual
Format profile              : Advanced Simple@L5
Format settings, BVOP       : 2
Format settings, QPel       : No
Format settings, GMC        : No warppoints
Format settings, Matrix     : Default (H.263)
Codec ID                    : XVID
Codec ID/Hint               : XviD
Duration                    : 2 h 28 min
Bit rate                    : 569 kb/s
Width                       : 608 pixels
Height                      : 256 pixels
Display aspect ratio        : 2.40:1
Frame rate                  : 25.000 FPS
Color space                 : YUV
Chroma subsampling          : 4:2:0
Bit depth                   : 8 bits
Scan type                   : Progressive
Compression mode            : Lossy
Bits/(Pixel*Frame)          : 0.146
Stream size                 : 605 MiB (85%)
Writing library             : XviD 67

Audio
ID                          : 1
Format                      : MPEG Audio
Format version              : Version 1
Format profile              : Layer 3
Mode                        : Joint stereo
Mode extension              : MS Stereo
Codec ID                    : 55
Codec ID/Hint               : MP3
Duration                    : 2 h 28 min
Bit rate mode               : Constant
Bit rate                    : 96.0 kb/s
Channel(s)                  : 2 channels
Sampling rate               : 48.0 kHz
Compression mode            : Lossy
Stream size                 : 102 MiB (14%)
Alignment                   : Aligned on interleaves
Interleave, duration        : 160  ms (4.00 video frames)
Interleave, preload duratio : 216  ms
Title                       : nenurajafull





SINGLE DIRECT FAST LINKS

Code:
http://www.heroupload.com/2db3c0241e778d38/Nene.Raju.Nene.Mantri.2017.Telugu.PreDVDRip.XviD.MP3.700MB-MTR.avi
Code:
http://filefloater.com/J6/Nene.Raju.Nene.Mantri.2017.Telugu.PreDVDRip.XviD.MP3.700MB-MTR.avi