Code:
General
Format                      : MPEG-4
Format profile              : Base Media
Codec ID                    : isom (isom)
File size                   : 2.04 GiB
Duration                    : 2 h 6 min
Overall bit rate mode       : Variable
Overall bit rate            : 2 319 kb/s
Encoded date                : UTC 2017-10-05 19:54:19
Tagged date                 : UTC 2017-10-05 19:54:19
Writing application         : MkvToMp4 [www.mkvtomp4.ru] version 0.224 (x64)

Video
ID                          : 1
Format                      : AVC
Format/Info                 : Advanced Video Codec
Format profile              : Main@L3.1
Format settings, CABAC      : Yes
Format settings, RefFrames  : 4 frames
Codec ID                    : avc1
Codec ID/Info               : Advanced Video Coding
Duration                    : 2 h 6 min
Bit rate                    : 1 999 kb/s
Maximum bit rate            : 5 869 kb/s
Width                       : 1 280 pixels
Height                      : 720 pixels
Display aspect ratio        : 16:9
Frame rate mode             : Constant
Frame rate                  : 25.000 FPS
Color space                 : YUV
Chroma subsampling          : 4:2:0
Bit depth                   : 8 bits
Scan type                   : Progressive
Bits/(Pixel*Frame)          : 0.087
Stream size                 : 1.76 GiB (86%)
Writing library             : Zencoder Video Encoding System
Language                    : English
Tagged date                 : UTC 2017-10-05 19:54:26
Color range                 : Limited
Color primaries             : BT.709
Transfer characteristics    : BT.709
Matrix coefficients         : BT.709

Audio
ID                          : 2
Format                      : AAC
Format/Info                 : Advanced Audio Codec
Format profile              : LC
Codec ID                    : 40
Duration                    : 2 h 6 min
Bit rate mode               : Variable
Bit rate                    : 317 kb/s
Maximum bit rate            : 397 kb/s
Channel(s)                  : 2 channels
Channel(s)_Original         : 6 channels
Channel positions           : Front: L C R, Side: L R, LFE
Sampling rate               : 48.0 kHz
Frame rate                  : 46.875 FPS (1024 SPF)
Compression mode            : Lossy
Stream size                 : 285 MiB (14%)
Language                    : English
Default                     : Yes
Alternate group             : 1
Encoded date                : UTC 2017-10-05 19:54:23
Tagged date                 : UTC 2017-10-05 19:54:26


SINGLE DIRECT FAST LINKS

Code:
http://www.heroupload.com/2e5e7efb5d62a5f9/Pichuva.Kaththi.2017.720p.v2.HD.AVC.5.1.MP4.ESubs.Tamil-MTR.mp4
Code:
http://filefloater.com/639/Pichuva.Kaththi.2017.720p.v2.HD.AVC.5.1.MP4.ESubs.Tamil-MTR.mp4
700MB LINKS
Code:
http://www.heroupload.com/768e6eaf7530c437/Pichuva.Kaththi.2017.720p.v2.HD.AVC.5.1.MP4.ESubs.Tamil-MTR.part1.rar
http://www.heroupload.com/9ab8e6f1d58e4a65/Pichuva.Kaththi.2017.720p.v2.HD.AVC.5.1.MP4.ESubs.Tamil-MTR.part2.rar
http://www.heroupload.com/cd45b8d33ac27302/Pichuva.Kaththi.2017.720p.v2.HD.AVC.5.1.MP4.ESubs.Tamil-MTR.part3.rar
http://www.heroupload.com/838b845ff187589a/Pichuva.Kaththi.2017.720p.v2.HD.AVC.5.1.MP4.ESubs.Tamil-MTR.srt
Code:
http://filefloater.com/63a/Pichuva.Kaththi.2017.720p.v2.HD.AVC.5.1.MP4.ESubs.Tamil-MTR.part1.rar
http://filefloater.com/63b/Pichuva.Kaththi.2017.720p.v2.HD.AVC.5.1.MP4.ESubs.Tamil-MTR.part2.rar
http://filefloater.com/63c/Pichuva.Kaththi.2017.720p.v2.HD.AVC.5.1.MP4.ESubs.Tamil-MTR.part3.rar
http://filefloater.com/63d/Pichuva.Kaththi.2017.720p.v2.HD.AVC.5.1.MP4.ESubs.Tamil-MTR.srt