Code:
General
Format                      : MPEG-4
Codec ID                    : M4V  (isom/avc1/mp42)
File size                   : 4.88 GiB
Duration                    : 2 h 5 min
Overall bit rate mode       : Variable
Overall bit rate            : 5 552 kb/s
Encoded date                : UTC 2017-08-09 13:41:04
Tagged date                 : UTC 2017-08-09 13:41:04

Video
ID                          : 1
Format                      : AVC
Format/Info                 : Advanced Video Codec
Format profile              : Main@L5.1
Format settings, CABAC      : Yes
Format settings, ReFrames   : 2 frames
Format settings, GOP        : M=3, N=90
Codec ID                    : avc1
Codec ID/Info               : Advanced Video Coding
Duration                    : 2 h 5 min
Bit rate mode               : Constant
Bit rate                    : 5 000 kb/s
Maximum bit rate            : 12.7 Mb/s
Width                       : 3 840 pixels
Height                      : 2 160 pixels
Display aspect ratio        : 16:9
Frame rate mode             : Constant
Frame rate                  : 25.000 FPS
Color space                 : YUV
Chroma subsampling          : 4:2:0
Bit depth                   : 8 bits
Scan type                   : Progressive
Bits/(Pixel*Frame)          : 0.024
Stream size                 : 4.39 GiB (90%)
Encoded date                : UTC 2017-08-09 13:41:04
Tagged date                 : UTC 2017-08-09 13:41:04

Audio #1
ID                          : 2
Format                      : AAC
Format/Info                 : Advanced Audio Codec
Format profile              : LC
Codec ID                    : 40
Duration                    : 2 h 5 min
Bit rate mode               : Variable
Bit rate                    : 96.0 kb/s
Maximum bit rate            : 101 kb/s
Channel(s)                  : 2 channels
Channel positions           : Front: L R
Sampling rate               : 48.0 kHz
Frame rate                  : 46.875 FPS (1024 spf)
Compression mode            : Lossy
Stream size                 : 84.0 MiB (2%)
Encoded date                : UTC 2017-08-09 13:41:04
Tagged date                 : UTC 2017-08-09 13:41:04

Audio #2
ID                          : 3
Format                      : AC-3
Format/Info                 : Audio Coding 3
Format settings, Endianness : Big
Codec ID                    : ac-3
Duration                    : 2 h 5 min
Bit rate mode               : Constant
Bit rate                    : 448 kb/s
Channel(s)                  : 6 channels
Channel positions           : Front: L C R, Side: L R, LFE
Sampling rate               : 48.0 kHz
Frame rate                  : 31.250 FPS (1536 spf)
Bit depth                   : 16 bits
Compression mode            : Lossy
Stream size                 : 403 MiB (8%)
Service kind                : Complete Main
Encoded date                : UTC 2017-08-09 13:41:04
Tagged date                 : UTC 2017-08-09 13:41:04

SINGLE DIRECT FAST LINKS
Code:
http://www.heroupload.com/39856885bf48cc20/Gemini.Ganeshanum.Suruli.Raajanum.2017.4K.Untouched.UHD.MP4.Tamil-MTR.mp4
Code:
http://filefloater.com/rU/Gemini.Ganeshanum.Suruli.Raajanum.2017.4K.Untouched.UHD.MP4.Tamil-MTR.mp4
1GB LINKS
Code:
http://www.heroupload.com/55aadbd08045d312/Gemini.Ganeshanum.Suruli.Raajanum.2017.4K.Untouched.UHD.MP4.Tamil-MTR.part1.rar
http://www.heroupload.com/2bd42c680e77a0f8/Gemini.Ganeshanum.Suruli.Raajanum.2017.4K.Untouched.UHD.MP4.Tamil-MTR.part2.rar
http://www.heroupload.com/e8cffa909f10ffe7/Gemini.Ganeshanum.Suruli.Raajanum.2017.4K.Untouched.UHD.MP4.Tamil-MTR.part3.rar
http://www.heroupload.com/e012a6003e2de15c/Gemini.Ganeshanum.Suruli.Raajanum.2017.4K.Untouched.UHD.MP4.Tamil-MTR.part4.rar
http://www.heroupload.com/f8a62852c096c571/Gemini.Ganeshanum.Suruli.Raajanum.2017.4K.Untouched.UHD.MP4.Tamil-MTR.part5.rar
Code:
http://filefloater.com/rV/Gemini.Ganeshanum.Suruli.Raajanum.2017.4K.Untouched.UHD.MP4.Tamil-MTR.part1.rar
http://filefloater.com/rW/Gemini.Ganeshanum.Suruli.Raajanum.2017.4K.Untouched.UHD.MP4.Tamil-MTR.part2.rar
http://filefloater.com/I5/Gemini.Ganeshanum.Suruli.Raajanum.2017.4K.Untouched.UHD.MP4.Tamil-MTR.part3.rar
http://filefloater.com/I6/Gemini.Ganeshanum.Suruli.Raajanum.2017.4K.Untouched.UHD.MP4.Tamil-MTR.part4.rar
http://filefloater.com/I7/Gemini.Ganeshanum.Suruli.Raajanum.2017.4K.Untouched.UHD.MP4.Tamil-MTR.part5.rar