Code:
General
Format                      : MPEG-4
Format profile              : Base Media
Codec ID                    : isom (isom)
File size                   : 3.84 GiB
Duration                    : 2 h 5 min
Overall bit rate mode       : Variable
Overall bit rate            : 4 388 kb/s
Encoded date                : UTC 2017-08-10 18:50:30
Tagged date                 : UTC 2017-08-10 18:50:30
Writing application         : MkvToMp4 [www.mkvtomp4.ru] version 0.224 (x64)

Video
ID                          : 1
Format                      : AVC
Format/Info                 : Advanced Video Codec
Format profile              : High@L4.1
Format settings, CABAC      : Yes
Format settings, ReFrames   : 4 frames
Codec ID                    : avc1
Codec ID/Info               : Advanced Video Coding
Duration                    : 2 h 5 min
Bit rate                    : 4 096 kb/s
Maximum bit rate            : 7 230 kb/s
Width                       : 1 920 pixels
Height                      : 1 080 pixels
Display aspect ratio        : 16:9
Frame rate mode             : Constant
Frame rate                  : 25.000 FPS
Color space                 : YUV
Chroma subsampling          : 4:2:0
Bit depth                   : 8 bits
Scan type                   : Progressive
Bits/(Pixel*Frame)          : 0.079
Stream size                 : 3.55 GiB (93%)
Writing library             : x264 core 142 r2479 dd79a61
Encoding settings           : cabac=1 / ref=3 / deblock=1:0:0 / analyse=0x3:0x113 / me=hex / subme=7 / psy=1 / psy_rd=1.00:0.00 / mixed_ref=1 / me_range=16 / chroma_me=1 / trellis=1 / 8x8dct=1 / cqm=0 / deadzone=21,11 / fast_pskip=1 / chroma_qp_offset=-2 / threads=12 / lookahead_threads=2 / sliced_threads=0 / nr=0 / decimate=1 / interlaced=0 / bluray_compat=0 / constrained_intra=0 / bframes=3 / b_pyramid=2 / b_adapt=1 / b_bias=0 / direct=1 / weightb=1 / open_gop=0 / weightp=2 / keyint=50 / keyint_min=26 / scenecut=0 / intra_refresh=0 / rc_lookahead=40 / rc=abr / mbtree=1 / bitrate=4096 / ratetol=1.0 / qcomp=0.60 / qpmin=0 / qpmax=69 / qpstep=4 / vbv_maxrate=4200 / vbv_bufsize=4200 / nal_hrd=none / filler=0 / ip_ratio=1.40 / aq=1:1.00
Language                    : English
Tagged date                 : UTC 2017-08-10 18:50:37

Audio
ID                          : 2
Format                      : AAC
Format/Info                 : Advanced Audio Codec
Format profile              : LC
Codec ID                    : 40
Duration                    : 2 h 5 min
Bit rate mode               : Variable
Bit rate                    : 324 kb/s
Maximum bit rate            : 571 kb/s
Channel(s)                  : 2 channels
Channel(s)_Original         : 6 channels
Channel positions           : Front: L C R, Side: L R, LFE
Sampling rate               : 48.0 kHz
Frame rate                  : 46.875 FPS (1024 spf)
Compression mode            : Lossy
Stream size                 : 290 MiB (7%)
Language                    : English
Default                     : Yes
Alternate group             : 1
Encoded date                : UTC 2017-08-10 18:50:35
Tagged date                 : UTC 2017-08-10 18:50:37




SINGLE DIRECT FAST LINKS
Code:
http://www.heroupload.com/6d2108527b237314/Gemini.Ganeshanum.Suruli.Raajanum.2017.1080p.v2.HD.5.1.AVC.ESubs.Tamil-MTR.mp4
Code:
http://filefloater.com/s5/Gemini.Ganeshanum.Suruli.Raajanum.2017.1080p.v2.HD.5.1.AVC.ESubs.Tamil-MTR.mp4
1GB LINKS


Code:
http://www.heroupload.com/d18362e8035cb7f8/Gemini.Ganeshanum.Suruli.Raajanum.2017.1080p.v2.HD.5.1.AVC.ESubs.Tamil-MTR.part1.rar
http://www.heroupload.com/6fbaa7818e460d3b/Gemini.Ganeshanum.Suruli.Raajanum.2017.1080p.v2.HD.5.1.AVC.ESubs.Tamil-MTR.part2.rar
http://www.heroupload.com/1ce923de5311e812/Gemini.Ganeshanum.Suruli.Raajanum.2017.1080p.v2.HD.5.1.AVC.ESubs.Tamil-MTR.part3.rar
http://www.heroupload.com/6065c7b973a2367c/Gemini.Ganeshanum.Suruli.Raajanum.2017.1080p.v2.HD.5.1.AVC.ESubs.Tamil-MTR.part4.rar
http://www.heroupload.com/14ed14e955d96bc3/Gemini.Ganeshanum.Suruli.Raajanum.2017.1080p.v2.HD.5.1.AVC.ESubs.Tamil-MTR.srt

Code:
http://filefloater.com/s6/Gemini.Ganeshanum.Suruli.Raajanum.2017.1080p.v2.HD.5.1.AVC.ESubs.Tamil-MTR.part1.rar
http://filefloater.com/s7/Gemini.Ganeshanum.Suruli.Raajanum.2017.1080p.v2.HD.5.1.AVC.ESubs.Tamil-MTR.part2.rar
http://filefloater.com/s8/Gemini.Ganeshanum.Suruli.Raajanum.2017.1080p.v2.HD.5.1.AVC.ESubs.Tamil-MTR.part3.rar
http://filefloater.com/s9/Gemini.Ganeshanum.Suruli.Raajanum.2017.1080p.v2.HD.5.1.AVC.ESubs.Tamil-MTR.part4.rar
http://filefloater.com/sa/Gemini.Ganeshanum.Suruli.Raajanum.2017.1080p.v2.HD.5.1.AVC.ESubs.Tamil-MTR.srt