Code:
General
Format                      : MPEG-4
Format profile              : Base Media
Codec ID                    : isom (isom/iso2/avc1/mp41)
File size                   : 2.54 GiB
Duration                    : 2 h 8 min
Overall bit rate            : 2 821 kb/s
Writing application         : Lavf56.40.101

Video
ID                          : 1
Format                      : AVC
Format/Info                 : Advanced Video Codec
Format profile              : High@L4
Format settings, CABAC      : Yes
Format settings, RefFrames  : 2 frames
Codec ID                    : avc1
Codec ID/Info               : Advanced Video Coding
Duration                    : 2 h 8 min
Duration_FirstFrame         : -42 ms
Bit rate                    : 2 690 kb/s
Width                       : 1 920 pixels
Height                      : 1 080 pixels
Display aspect ratio        : 16:9
Frame rate mode             : Variable
Frame rate                  : 24.000 FPS
Minimum frame rate          : 24.000 FPS
Maximum frame rate          : 24.013 FPS
Color space                 : YUV
Chroma subsampling          : 4:2:0
Bit depth                   : 8 bits
Scan type                   : Progressive
Bits/(Pixel*Frame)          : 0.054
Stream size                 : 2.42 GiB (95%)
Color range                 : Limited
Color primaries             : BT.709
Transfer characteristics    : BT.709
Matrix coefficients         : BT.709

Audio
ID                          : 2
Format                      : AAC
Format/Info                 : Advanced Audio Codec
Format profile              : LC
Codec ID                    : 40
Duration                    : 2 h 8 min
Bit rate mode               : Constant
Bit rate                    : 126 kb/s
Channel(s)                  : 2 channels
Channel positions           : Front: L R
Sampling rate               : 44.1 kHz
Frame rate                  : 43.066 FPS (1024 SPF)
Compression mode            : Lossy
Stream size                 : 116 MiB (4%)
Default                     : Yes
Alternate group             : 1
















Buy HeroUpload Premium and Support Us.


Single Direct Fast Link

Code:
http://www.heroupload.com/6d9b240992edf424/ROCKY.MENTAL.2017.1080p.WEB.AVC.AAC-DUS.Exclsuive.mp4
Code:
http://filefloater.com/5SZ/ROCKY.MENTAL.2017.1080p.WEB.AVC.AAC-DUS.Exclsuive.mp4
700MB LINKS

Code:
http://www.heroupload.com/93dff4fbe0381afa/ROCKY.MENTAL.2017.1080p.WEB.AVC.AAC-DUS.Exclsuive.part1.rar
http://www.heroupload.com/b2c4d13703d1fe79/ROCKY.MENTAL.2017.1080p.WEB.AVC.AAC-DUS.Exclsuive.part2.rar
http://www.heroupload.com/159eee9bad2e666c/ROCKY.MENTAL.2017.1080p.WEB.AVC.AAC-DUS.Exclsuive.part3.rar
http://www.heroupload.com/65b2c69d512b074b/ROCKY.MENTAL.2017.1080p.WEB.AVC.AAC-DUS.Exclsuive.part4.rar
Code:
http://filefloater.com/5T0/ROCKY.MENTAL.2017.1080p.WEB.AVC.AAC-DUS.Exclsuive.part1.rar
http://filefloater.com/5T1/ROCKY.MENTAL.2017.1080p.WEB.AVC.AAC-DUS.Exclsuive.part2.rar
http://filefloater.com/5T2/ROCKY.MENTAL.2017.1080p.WEB.AVC.AAC-DUS.Exclsuive.part3.rar
http://filefloater.com/5T3/ROCKY.MENTAL.2017.1080p.WEB.AVC.AAC-DUS.Exclsuive.part4.rar